<?xml version="1.0" standalone="no"?>
<!DOCTYPE svg PUBLIC "-//W3C//DTD SVG 1.1//EN" "http://www.w3.org/Graphics/SVG/1.1/DTD/svg11.dtd" >
<svg xmlns="http://www.w3.org/2000/svg">
<metadata>
This is a custom SVG webfont generated by Font Squirrel.
Copyright   : Copyright c 2010 by Kimberly Geswein All rights reserved
Designer    : Kimberly Geswein
Foundry     : Kimberly Geswein
</metadata>
<defs>
<font id="ShadowsIntoLightRegular" horiz-adv-x="1024" >
<font-face units-per-em="2048" ascent="1638" descent="-410" />
<missing-glyph horiz-adv-x="500" />
<glyph unicode=" " />
<glyph unicode="!" horiz-adv-x="314" d="M35 900q-3 54 0 107t3 79q0 206 9 407t21 413q8 18 17 24t25 6q22 0 31 -12t12 -28t2 -35t-1 -31v-682q0 -40 7 -84l14 -88q7 -44 10 -83t-5 -67q-4 -24 -25 -42t-45 -18q-40 0 -56 40t-19 94zM178 54v18v17q0 11 2 23t9 21t19 9q46 0 54 -21t8 -49q0 -32 -8 -52t-54 -20 q-12 0 -19 9t-9 21t-2 24z" />
<glyph unicode="&#x22;" horiz-adv-x="484" d="M58 1766q8 22 24 26t34 4q26 0 42 -10t14 -50l19 -249q9 -117 9 -243q0 -14 1 -32t-2 -35t-13 -29t-30 -12q-16 0 -27 37t-19 96t-15 131t-12 142t-11 130t-14 94zM314 1280v486q18 6 34 0t28 -16t18 -22t6 -20v-502q-34 0 -60 18t-26 56z" />
<glyph unicode="#" d="M118 410q0 16 24 31t55 27t58 19t33 9v342q-36 2 -66 10q-26 6 -48 17t-26 27q-4 10 -5 21t-3 23t-2 28h146q2 18 4 38q4 36 0 62q0 6 -5 32t-9 54t-9 53t-5 31v32q0 22 9 40t35 18t43 -22t28 -55t16 -73t8 -75t3 -61t2 -30q12 -6 38 -4t54 10t51 21t27 29v370q0 6 11 17 t17 11q8 0 31 -11t27 -17q2 -32 7 -70t11 -78t16 -80t22 -72h174q0 -28 -27 -43t-60 -25t-60 -22t-27 -36v-250q44 0 83 17t77 38t77 39t83 18q0 -38 -22 -63t-54 -42t-70 -33t-70 -35t-54 -48t-22 -73q0 -70 5 -123t23 -127l-74 -76l-68 302q-2 0 -4 2q-2 0 -4 1t-4 1 q-60 0 -107 -30t-74 -77t-30 -103t25 -106l-28 -30q-20 10 -35 37t-27 57q-14 36 -24 76q-38 -18 -66 -24t-68 -6q-28 0 -47 7t-19 53zM398 811q0 -41 5 -85t13 -89t16 -85l170 114v294q-70 0 -127 -20t-67 -56q-10 -32 -10 -73z" />
<glyph unicode="$" horiz-adv-x="1014" d="M6 882q4 94 48 164t107 129t136 110t135 109q-2 34 -7 97t2 126t33 110t86 47v-352q42 16 73 23t71 7q22 0 40 -9t18 -33q0 -30 -24 -44t-57 -23t-67 -15t-54 -20q0 -10 -1 -34t-1 -51v-51v-34v-144q0 -74 32 -140q96 -12 194 -45t174 -99q2 -4 2 -20v-22q0 -68 -34 -120 t-84 -96t-104 -84t-92 -84q0 -6 -1 -20t-2 -30t-1 -30v-20q0 -48 10 -94t21 -92t21 -92t10 -92q0 -28 -14 -39t-44 -31l-28 28l-114 456q-10 -6 -30 -16t-42 -19t-41 -16t-29 -7q-12 0 -18 8t-9 18t-4 20t-1 16t1 15t3 9l170 86v12q0 4 1 10t1 10q0 42 -4 97t-10 109l-11 98 l-7 62q-16 -2 -56 -4t-91 -1t-105 8t-99 23t-74 44t-29 72zM148 910q0 -34 22 -52t53 -25t66 -8t61 -1q4 0 18 -1t28 1t25 9t11 21v374q-44 0 -94 -34t-92 -83t-70 -104t-28 -97zM570 760q0 -90 9 -167t25 -167q2 0 7 -1t7 -1q28 0 70 22t81 57t67 76t28 77q0 42 -41 64 t-94 31t-100 9h-59z" />
<glyph unicode="%" d="M36 1308q0 52 10 99t34 82t64 56t100 21q28 0 58 -13t54 -35t39 -50t15 -58q0 -44 -18 -105t-50 -118t-76 -97t-98 -40q-50 0 -77 28t-39 69t-14 85t-2 76zM146 1150q38 0 75 24t66 61t47 80t18 79q0 22 -12 38t-29 27t-37 16t-38 5q-36 0 -55 -45t-27 -102t-8 -111v-72z M292 58q0 4 1 14t1 14q26 204 60 418t79 428t103 424t130 408q18 12 34 20t38 8q16 0 29 -12t13 -32v-7q0 -5 -2 -7q-72 -214 -136 -437t-119 -444t-101 -437t-84 -418q-26 0 -36 19t-10 41zM715 508q3 34 3 58q0 22 -1 74t7 106t29 95t67 41q40 0 70 -21t49 -53t29 -70 t10 -70q0 -38 -12 -90t-36 -100t-59 -81t-79 -33q-38 0 -54 23t-21 55t-2 66zM804 568q0 -20 4 -34t28 -22q28 44 43 72t15 70q0 26 -6 43t-24 43q-22 -10 -34 -30t-18 -45t-7 -51t-1 -46z" />
<glyph unicode="&#x26;" horiz-adv-x="812" d="M36 612q0 78 27 129t67 79t86 34t86 -6t67 -40t27 -68v482q0 12 14 19t32 12t33 6t19 1l-8 -458q60 54 114 87t92 46t55 5t4 -39t-63 -83t-144 -128q-6 -4 -10 -11t-7 -42t-4 -109t-1 -214q0 -22 -20 -37t-44 -20t-44 1t-18 26l18 286q-118 -128 -191 -170t-115 -24 t-57 83t-15 153zM113 622q-3 -56 9 -103t34 -53q-2 -16 12 -7t38 32t52 53l52 58q24 28 39 49t13 23q-78 94 -154 94q-46 0 -69 -45t-26 -101z" />
<glyph unicode="'" horiz-adv-x="354" d="M74 1338v16q0 28 12 50t44 22q34 0 54 -28t30 -71t12 -94t1 -97t-4 -81t-3 -45v-49q0 -35 -1 -73t-2 -72t-1 -48q-34 4 -57 28t-27 58q-2 18 -7 56l-11 85q-6 47 -12 100l-12 101q-6 48 -10 86z" />
<glyph unicode="(" horiz-adv-x="664" d="M36 672q0 164 40 328t109 319t163 297t202 262q2 0 8 1t8 1q26 0 35 -19t9 -41q0 -4 -1 -14t-1 -14q-100 -120 -184 -250t-145 -270t-95 -290t-34 -308q0 -100 25 -205t77 -196t133 -158t195 -87q-36 -16 -59 -23t-57 -7q-70 0 -129 35t-106 93t-84 131t-61 148t-36 145 t-12 122z" />
<glyph unicode=")" horiz-adv-x="550" d="M56 1636v14q0 22 9 40t35 18h7q5 0 7 -2q110 -92 182 -188t115 -203t61 -228t18 -263q0 -102 -13 -218t-46 -227t-90 -211t-143 -168v28q0 76 32 160l70 179q38 95 70 199t32 220q0 128 -16 243t-55 218t-105 197t-168 178q-2 4 -2 14z" />
<glyph unicode="*" horiz-adv-x="1096" d="M36 612q0 30 38 42t91 17t107 9t88 18l-272 166q-22 14 -30 32t2 34q8 12 20 20t28 2l288 -110v380q0 12 14 19t32 12t33 6t19 1l6 -396q26 22 66 64t77 88t65 87t32 63q8 4 17 -2t20 -16t21 -21t22 -17q20 -12 10 -34t-36 -50t-61 -59l-67 -61q-32 -30 -55 -57t-23 -47 q62 20 116 35t107 25t110 16t123 6q0 -20 -6 -50t-32 -38q-22 -4 -74 -16l-111 -26l-112 -26q-53 -12 -73 -18q-6 -2 -14 -3t-18 -5l330 -198q10 -6 9 -22t-7 -33t-13 -31t-9 -16l-370 210l52 -414q0 -26 -13 -40t-30 -17t-30 4t-13 25l-52 396q-12 -64 -47 -119t-76 -100 t-83 -81l-70 -60q-16 12 -26 36t-30 44q-8 8 9 35t45 61t62 70l63 67q29 31 45 50t10 19q-96 -14 -166 -20t-98 -28l-38 30q-22 18 -22 42z" />
<glyph unicode="+" horiz-adv-x="1062" d="M36 612q0 24 27 37t67 19t86 9t86 9t67 18t27 36v482q0 12 14 19t32 12t33 6t19 1v-492q126 40 269 78t281 38q0 -20 -6 -50t-32 -38q-22 -4 -74 -16l-111 -26l-112 -26q-53 -12 -73 -18q-6 -2 -19 -5t-27 -8l-25 -9q-11 -4 -15 -6q-6 -4 -17 -14t-11 -14v-340 q0 -28 -10 -44t-30 -16q-16 0 -29 7t-17 23l-56 314q-6 0 -14 2q-6 0 -11 1t-9 1q-64 0 -130 -20t-120 -42l-38 30q-22 18 -22 42z" />
<glyph unicode="," horiz-adv-x="256" d="M64 156q0 64 32 88t94 24q20 -30 32 -62t12 -84t-17 -134t-53 -214l-86 -28q2 26 4 70t3 92l2 92q1 44 5 70q-4 4 -8 16l-9 26q-5 14 -8 26t-3 18z" />
<glyph unicode="-" horiz-adv-x="910" d="M28 454q0 8 12 30t18 28q98 6 197 42t197 77t192 75t182 34q12 0 19 -11t10 -25t3 -27v-17q0 -8 -2 -21t-2 -15l-656 -198q-4 -2 -28 -3t-36 -1l-17 -1q-17 -1 -37 1t-36 9t-16 23z" />
<glyph unicode="." horiz-adv-x="294" d="M58 86q32 34 54 46t58 12q60 0 60 -58q0 -12 -8 -29t-21 -32t-28 -23t-29 -2q-14 -10 -31 -5t-31 18t-21 32t-3 41z" />
<glyph unicode="/" horiz-adv-x="698" d="M14 -102l516 1690h108l-552 -1778q-28 0 -50 22t-22 50v16z" />
<glyph unicode="0" horiz-adv-x="702" d="M79 760q7 114 41 210t96 165t160 91q96 -16 144 -78t69 -145t26 -176t13 -171q0 -38 -3 -101t-12 -136t-27 -147t-50 -135t-80 -99t-114 -38q-40 -18 -81 20t-77 114t-63 180t-38 218t-4 228zM170 832q0 -4 2 -6q0 -238 18 -389t47 -231t66 -99t74 6t72 86t59 141t35 170 t1 172q0 64 -7 135t-24 135t-48 114t-79 72q-40 0 -79 -33t-69 -80t-49 -98t-19 -87v-8z" />
<glyph unicode="1" horiz-adv-x="256" d="M71 714q1 166 5 333t0 347q0 6 11 17t17 11q8 0 30 -11t28 -17q0 -46 3 -144t5 -222t5 -260l6 -260q3 -124 5 -222t2 -144q0 -4 1 -31t1 -37q0 -16 1 -29t-4 -23t-17 -16t-36 -6q-8 0 -19 11t-11 17q-22 182 -28 351t-5 335z" />
<glyph unicode="2" horiz-adv-x="1166" d="M46 952q0 2 1 7t1 7l98 108q54 60 118 113t135 88t149 35q78 -36 112 -115t35 -182t-24 -220t-66 -233t-91 -220t-96 -178l596 180q2 0 12 1t16 1q12 0 27 -2t28 -6t23 -13t10 -23q-80 -50 -186 -84t-218 -64l-219 -59q-107 -29 -191 -69q-30 0 -50 8t-20 54 q66 110 127 224t108 231t76 238t33 249q-24 74 -49 115t-74 31t-134 -79t-229 -213q-20 14 -39 30t-19 40z" />
<glyph unicode="3" horiz-adv-x="1052" d="M36 1294q0 30 35 62t91 62t125 57t136 47t124 32t89 12q58 -28 75 -74t8 -102t-39 -118t-69 -123t-79 -116l-68 -95q48 28 102 30t106 2q58 0 118 -16t108 -48t79 -80t31 -114q0 -112 -59 -214t-146 -193t-187 -168l-180 -137q-20 12 -39 29t-19 43q0 34 39 72t96 81 l125 94q68 51 125 109t96 126t39 146q0 56 -23 92t-59 56t-82 28t-90 8q-48 4 -92 -14t-87 -44t-84 -54t-80 -44t-76 -12t-73 40v7q0 5 2 5l396 454q64 90 65 138t-36 65t-101 6t-132 -41t-130 -74t-92 -94q-2 0 -7 -1t-7 -1q-28 0 -51 23t-23 51z" />
<glyph unicode="4" horiz-adv-x="1146" d="M16 598q0 4 2 30t9 53t23 47t46 12q98 124 174 245t145 243l135 247l142 259q10 24 24 28t34 4q12 0 34 -4t22 -28v-852q76 0 147 18t147 18q20 -64 -4 -87t-72 -29t-108 -9t-110 -25v-710q0 -12 -14 -24t-33 -20t-38 -13t-29 -5v752zM266 740h14h14l112 31l132 37 q64 18 109 32l45 14v568q-50 -78 -111 -162l-120 -171q-59 -87 -111 -175t-84 -174z" />
<glyph unicode="5" horiz-adv-x="1090" d="M42 1353q4 37 22 71t42 57t49 31t43 -10q20 0 34 -12t22 -28t12 -35t8 -33l682 170q2 0 14 1t18 1q20 0 38 -9t18 -33q0 -22 -8 -38t-22 -36q-112 16 -215 -5t-211 -51q-132 -36 -206 -66t-111 -78t-46 -127t-9 -213v-40q0 -28 1 -59t1 -60v-41l94 106q46 52 96 93 t109 66t135 25q46 0 78 -22t51 -56t28 -76t9 -80q0 -112 -37 -219t-98 -205t-138 -184t-155 -158q-26 8 -29 23t-3 33q0 46 26 93t64 96t84 102t84 113t64 129t26 151q-2 176 -147 131t-411 -333q-10 2 -19 8t-16 27t-13 63t-7 117t1 189t10 280q-40 24 -53 59t-9 72z" />
<glyph unicode="6" horiz-adv-x="854" d="M56 584q0 72 2 126l198 1110q4 14 30 22t42 8q26 0 35 -18t9 -40q0 -4 -1 -15t-1 -13l-84 -384l-57 -277q-23 -115 -35 -189t-18 -120t-7 -69t-1 -37q2 -128 2 -235t28 -197q22 58 46 128t54 140t67 135t84 115t105 80t130 30q38 0 61 -2t35 -12t16 -31t4 -59 q0 -48 -18 -124t-50 -163t-76 -175t-94 -159t-107 -116t-113 -45q-74 2 -124 42t-82 101t-49 138t-24 155t-7 150zM302 301q-16 -69 2 -119q16 -48 43 -54t59 17t66 67t68 97t64 107l52 96q50 122 56 184t-15 78t-64 -8t-93 -73t-100 -116t-86 -137t-52 -139z" />
<glyph unicode="7" horiz-adv-x="1042" d="M26 1492q0 14 57 34t146 41t195 41t205 36t176 26t107 10q56 0 56 -58v-14q0 -10 -2 -14q-54 -122 -105 -255t-92 -270t-65 -277t-24 -274q0 -66 2 -119t8 -105t18 -108t32 -128q-4 -22 -13 -41t-31 -19q-20 -2 -46 8t-48 54t-34 131t-2 241t46 384t112 558l72 150 q-88 0 -173 -12t-169 -26t-170 -26t-172 -12h-27q-15 0 -28 4t-22 13t-9 27z" />
<glyph unicode="8" horiz-adv-x="758" d="M48 1024q-16 66 2 139t58 142t98 128t120 98t124 51t112 -11t81 -89t33 -184q0 -78 -21 -161t-53 -166t-68 -160t-62 -143q0 -50 32 -99l69 -101q37 -52 69 -108t32 -118q0 -66 -27 -113t-71 -76t-101 -42t-117 -13q-84 0 -128 43t-44 125q0 66 17 123t41 112l48 110 q24 55 40 115l-85 76q-49 44 -93 95t-75 109t-31 118zM158 1072q0 -60 12 -105t37 -82t63 -71t90 -74q56 56 102 137t78 167t49 166t17 136q-64 -36 -125 -43t-91 10t-17 53t101 84h-84q-52 0 -95 -44t-73 -105t-47 -125t-17 -104zM274 168q16 -40 68 -56t108 -6t99 44 t41 94q0 40 -14 83t-38 83t-55 74t-65 56q-38 -22 -65 -67t-45 -100t-26 -110t-8 -95z" />
<glyph unicode="9" horiz-adv-x="1082" d="M28 796q0 70 26 152t70 165t105 159t131 135t147 95t153 36q82 0 133 -24t81 -65t43 -95t17 -114t3 -123t1 -121q4 -108 14 -217l20 -217q10 -108 18 -216t8 -216q0 -18 -1 -41t-7 -43t-21 -34t-45 -14q-22 0 -30 18t-12 42q2 56 -1 149t-8 204t-12 233l-14 236l-13 211 q-6 97 -8 161l-96 -126q-52 -70 -111 -140t-121 -135t-127 -110t-130 -65t-129 -2q-16 0 -31 11t-27 29t-19 40t-7 42zM141 811q15 -25 53 -13t93 53t116 100t121 128t109 136t80 125t35 94q-118 0 -210 -43t-164 -115t-128 -167t-102 -199q-18 -74 -3 -99z" />
<glyph unicode=":" horiz-adv-x="274" d="M54 898q0 28 8 48t52 20q46 0 53 -19t7 -47q0 -24 -6 -50t-38 -26q-76 0 -76 74zM84 328q0 34 11 53t49 19q58 0 58 -60q0 -28 -20 -57t-52 -29q-34 0 -40 24t-6 50z" />
<glyph unicode=";" horiz-adv-x="276" d="M64 156q0 64 32 88t94 24q20 -30 32 -62t12 -84t-17 -134t-53 -214l-86 -28q2 26 4 70t3 92l2 92q1 44 5 70q-4 4 -8 16l-9 26q-5 14 -8 26t-3 18zM66 600q0 28 22 51t50 23q22 0 44 -19t26 -41q6 -22 0 -34t-17 -17t-25 -6t-24 -1q-26 0 -51 6t-25 38z" />
<glyph unicode="&#x3c;" horiz-adv-x="932" d="M110 806l4 8q2 4 2 6l674 560q10 12 18 26t16 24t20 15t32 -3q30 -10 34 -36t-6 -54q-2 -2 -2 -8q0 -2 -2 -4q-74 -102 -146 -167t-150 -120l-163 -113q-85 -58 -183 -146l16 -36q2 -4 48 -34l109 -69l130 -79l109 -64q8 -6 34 -17t56 -22l56 -21q26 -10 38 -12 q6 -24 8 -40t-6 -36q-10 -26 -36 -46t-54 -28q-32 30 -98 70l-143 86l-157 94q-80 48 -142 95t-96 91t-20 80z" />
<glyph unicode="=" horiz-adv-x="986" d="M48 256q0 8 11 30t17 28q114 8 222 40t216 68t218 64t224 28q0 -62 -51 -94t-118 -47t-133 -20t-94 -13q-24 -6 -86 -25t-130 -42l-128 -44q-60 -21 -82 -31q-24 10 -44 20q-16 10 -29 19t-13 19zM100 662q0 4 2 20t4 22q24 4 75 11t115 15l136 17q72 9 136 18t116 15 t76 8q4 0 22 1t38 2t38 2t22 1q0 -30 -45 -56t-115 -49t-154 -41t-162 -31t-140 -20t-88 -7q-76 0 -76 72z" />
<glyph unicode="&#x3e;" d="M104 328q8 46 67 105t140 122l171 130q90 67 160 128t106 116t10 95l-622 336q-8 6 -19 27t-11 31q0 8 6 20t15 25t19 23t18 16l680 -392q54 -36 47 -97t-55 -135t-125 -154t-164 -155t-171 -140t-146 -108t-91 -58t-3 9q-24 0 -28 22t-4 34z" />
<glyph unicode="?" horiz-adv-x="1014" d="M28 1850q0 26 38 53t97 52t131 48t141 39t124 26t83 10q50 0 108 -8t106 -29t80 -60t32 -101q0 -114 -57 -225t-138 -210t-169 -184t-150 -151q-28 -14 -35 -42t1 -58t32 -58t60 -42t83 -9t103 39l42 -86q-46 -36 -109 -48t-119 -12q-42 0 -83 13t-74 38t-53 60t-20 79 q0 90 43 163t106 139t138 128t138 129t106 141t43 164q0 52 -27 77t-67 34t-87 8t-85 -1q-72 0 -136 -28t-123 -61t-117 -60t-118 -27q-28 0 -48 7t-20 53zM400 86q0 38 14 49t40 11q38 0 64 -27t26 -63q0 -32 -23 -44t-53 -12q-12 0 -24 10t-22 24t-16 28t-6 24z" />
<glyph unicode="@" horiz-adv-x="2152" d="M58 654q0 144 49 304t137 315t206 295t258 247t293 170t309 63q130 0 240 -61t189 -158t123 -219t44 -242q0 -108 -18 -216t-67 -195t-133 -141t-216 -54q-110 0 -171 24t-91 61t-38 82l-15 87q-7 42 -21 75t-54 47q-38 -64 -94 -148t-124 -159t-147 -127t-165 -52 q-52 0 -76 31t-24 83q0 62 32 145t85 171t123 175t146 155t154 110t146 42q90 0 118 -35t28 -111v-28q0 -16 -5 -30t-18 -22t-39 0v-29q0 -21 -1 -43t-1 -43v-29q0 -66 10 -128t38 -110t76 -77t126 -29q110 0 175 44t99 115t43 158t9 171q0 98 -27 204t-84 193t-143 144 t-204 57q-146 0 -287 -52t-268 -143t-235 -211t-186 -257t-122 -282t-44 -285q0 -168 45 -282t132 -183t214 -99t289 -30q268 0 507 87t467 227q28 18 44 43l30 49q14 24 34 40t58 16q72 0 86 -26t-26 -94q-138 -98 -286 -181t-305 -144t-323 -95t-336 -34q-158 0 -297 36 t-244 114t-166 202t-61 302zM568 756q40 0 82 23t81 56t71 69t52 62l54 78l78 120l76 121q36 57 48 81h102q0 34 -18 59t-56 25q-62 0 -128 -35t-130 -93t-120 -132t-99 -151t-68 -151t-25 -132z" />
<glyph unicode="A" horiz-adv-x="888" d="M58 58q6 32 11 80t12 128l18 198l28 287l41 397q24 228 60 530q4 22 23 26t33 4q24 0 40 -17t28 -40t23 -47t25 -40q22 -50 46 -117l50 -142l53 -152l53 -149l50 -133q24 -61 44 -103q24 4 69 20t96 32t100 25q26 5 47 5q19 0 35 -4q33 -8 43 -39q3 -9 3 -20 q0 -29 -19 -77q-16 0 -30 5t-27 11t-27 11t-32 5q-12 0 -51 -12t-83 -27t-77 -29t-33 -20l152 -602l-58 -86q-38 66 -63 149t-47 166t-46 156t-60 121q-46 -22 -110 -38t-124 -39t-104 -62t-52 -105q-4 -28 -8 -72l-8 -84q-6 -48 -10 -100h-114zM250 558q42 0 89 11t92 30 t82 47t57 64l-39 160q-21 84 -46 169t-54 168t-61 159q-4 4 -17 11q-4 2 -8 2q-12 0 -31 -13l-4 -37q-4 -37 -8 -87t-10 -103t-8 -87q-10 -126 -22 -247t-12 -247z" />
<glyph unicode="B" horiz-adv-x="1222" d="M56 1482q0 12 1 23t7 20t18 13t32 -2q12 -4 26 -17t26 -31t20 -36t12 -30q50 40 111 81t128 74t137 53t136 20q22 0 53 -5t58 -16t46 -30t19 -47q2 -16 2 -32q0 -38 -13 -76q-19 -54 -51 -106t-74 -101l-83 -93l-75 -82q-34 -38 -52 -66q92 60 197 88t213 28q32 0 71 -4 t72 -17t56 -38t23 -69t-42 -123t-107 -173t-144 -191t-152 -176t-132 -129t-83 -50l-58 28q10 42 55 99t106 120l131 131l132 133q62 65 109 126t61 111q5 18 5 33q0 29 -17 52q-26 35 -110 51q-86 0 -182 -30t-182 -85t-154 -132t-98 -173q0 -62 10 -122t21 -119t21 -119 t10 -120q0 -44 -7 -73t-57 -29q-4 0 -14 1t-10 3l-198 1338q-16 34 -23 59t-7 57zM228 1226q0 -82 12 -174t44 -170l84 77q50 47 104 103t107 118t96 120t69 108t26 84q0 26 -17 35t-39 9q-54 0 -137 -22t-160 -62t-133 -97t-56 -129z" />
<glyph unicode="C" horiz-adv-x="1110" d="M56 398q0 72 14 194t44 262t75 283t106 259t140 189t175 73q54 0 93 -20t65 -54t38 -78t12 -94q-40 0 -64 21t-44 45t-42 45t-56 21q-72 0 -132 -67t-109 -172t-87 -233t-63 -249t-38 -220t-13 -147q0 -64 6 -126t28 -110t65 -78t119 -30q90 0 178 57t163 141t131 178 t80 166q4 2 20 3t20 1q26 0 50 -6t24 -40q-14 -72 -63 -151t-116 -154t-146 -140t-155 -109t-141 -61q-30 -8 -54 -8q-29 0 -51 11q-72 0 -124 41t-85 101t-48 129t-15 127z" />
<glyph unicode="D" horiz-adv-x="1262" d="M48 1338q0 34 15 55t38 39t50 35t50 45t38 70t15 108q44 0 55 -16t13 -37t6 -42t32 -31q31 1 68.5 1t81.5 -1q88 -2 185 -14t191 -37t168 -69t118 -112q40 -62 40 -150v-16q-30 -170 -111 -328t-191 -303t-238 -279l-254 -256q-2 0 -7 -1t-7 -1q-20 0 -33 13t-13 33 q0 44 55 114t138 159l180 194q97 105 180 217t138 229t55 229q0 60 -33 104t-85 75t-118 49t-132 28t-127 13t-103 3q-10 0 -28 -1l-37 -2q-19 -1 -34 -3t-17 -2l-30 -28q0 -4 -1 -37t-2 -76t-1 -86v-69q0 -224 17 -446t17 -446q0 -12 1 -28t-2 -31t-13 -25t-30 -10 q-12 0 -26 7t-16 23l-86 1168q-6 -4 -23 -12l-35 -17q-18 -9 -34 -18t-22 -11q-2 0 -7 -1t-7 -1q-12 0 -27 6t-15 26z" />
<glyph unicode="E" horiz-adv-x="1080" d="M74 1536q0 10 8 26t20 30t27 23t31 7q26 -6 43 -33t26 -59t12 -63t3 -45l151 77q83 41 171 76t175 58t165 23q0 -20 -7 -36t-29 -26l-626 -314v-34v-52q2 -24 6 -85l8 -128l8 -128q4 -61 6 -85l456 256l12 14q12 14 29 25t36 12t37 -23q0 -40 -40 -78t-100 -76t-130 -73 t-130 -69t-100 -67t-40 -63v-428q11 -4 25 -4q24 0 57 13q52 21 116 59t133 88l135 95l122 80q56 35 94 43q22 0 40 -9t18 -37q0 -26 -30 -42q-78 -46 -179 -116l-206 -140q-105 -70 -206 -127t-175 -75q-28 0 -46 5t-40 27q0 180 2 353q1 58 1 115q0 115 -3 229 q-4 171 -17 344t-41 351q0 4 -5 17l-10 27l-9 26q-4 12 -4 16z" />
<glyph unicode="F" horiz-adv-x="976" d="M66 1350v116q0 24 14 34t34 14t42 4t38 2v-212q146 44 239 87l167 80q74 37 146 67t174 52q16 0 22 -16t6 -28q0 -26 -28 -42l-714 -342l30 -626l277 156l187 106l115 64l61 32l24 12q4 2 6 2q6 0 8 -8t2 -20v-25q0 -13 4 -21q-10 -14 -65 -49l-131 -81l-161 -96 l-158 -94q-73 -44 -121 -77t-48 -43v-340q0 -28 -10 -44t-32 -16q-24 0 -43 55t-32 148t-22 213t-15 249t-9 257t-5 238t-2 192z" />
<glyph unicode="G" horiz-adv-x="1346" d="M48 256q-2 19 -2 39q0 72 22 168q28 123 83 260t132 272t168 244t192 176t205 67q16 0 35 -3t36 -10t28 -21t11 -38q0 -12 -50 -30t-114 -39t-124 -44t-82 -45q-80 -102 -152 -209t-128 -220t-95 -233t-53 -248q0 -62 24 -96t63 -51t90 -20t103 -3q90 8 178 60t167 130 t144 177t109 201h-346q0 26 32 49t82 42t112 34t122 26t111 16t81 5h24q16 0 29 -5t19 -17q2 -4 2 -9q0 -11 -8 -27q-2 -4 -14 -13t-27 -18l-28 -17q-13 -8 -17 -10q-48 -94 -68 -220t-22 -262v-42q0 -115 9 -228q11 -134 27 -242l-86 -58q-28 28 -44 76t-23 108t-7 127 t3 130t7 119t6 94l-135 -121q-71 -65 -149 -121t-163 -93t-177 -37q-50 0 -108 13t-108 41t-86 72t-40 104z" />
<glyph unicode="H" horiz-adv-x="966" d="M66 1450q0 12 10 34t18 24q6 2 18 -1t26 -8t26 -11t16 -10q8 -88 11 -204l6 -234q3 -118 11 -228t28 -186l180 76q84 36 146 83t98 114q34 63 34 160v11q0 54 -2 96t-9 84t-19 89t-30 111q-4 40 13 51t43 11q28 0 44 -14t25 -36t12 -48t5 -48q4 -34 11 -106l15 -161 q8 -89 18 -189t18 -189l14 -161q6 -72 10 -106q8 -84 19 -167t11 -169v-36q0 -18 -4 -34t-16 -29t-38 -19q-40 28 -47 64t-11 78q-2 24 -5 74t-8 111l-11 129l-11 129q-5 61 -10 110t-7 73q-24 -16 -85 -51l-130 -75l-131 -76q-62 -36 -86 -54q-50 -38 -68 -87t-18 -106 t11 -118t17 -123q0 -32 -20 -58t-52 -26q-12 0 -28 7t-16 23z" />
<glyph unicode="I" horiz-adv-x="350" d="M116 1660q0 18 12 26t29 9h12q12 0 24 -1q19 -2 31 -2q12 -28 20 -107t15 -191t11 -247t7 -274t4 -273t2 -244t1 -186v-100q-2 -46 -19 -54q-5 -2 -14 -2q-21 0 -61 12q-8 2 -12 67t-7 171t-5 242l-4 281q-2 145 -5 289t-8 263t-13 205t-20 116z" />
<glyph unicode="J" horiz-adv-x="844" d="M28 314q0 6 12 17t18 11q28 -64 64 -135t84 -131t110 -99t142 -39q70 0 124 38t74 110q7 85 7 169q0 97 -9 193q-16 180 -41 359l-49 358q-24 179 -26 361q0 12 -1 29t3 32t13 26t31 11q26 0 42 -30q56 -324 101 -660t45 -666q0 -88 -13 -163t-48 -130t-97 -87t-160 -32 q-84 0 -161 39t-136 104t-94 147t-35 168z" />
<glyph unicode="K" horiz-adv-x="1194" d="M58 1478q4 24 25 42t47 18q12 0 24 -10t21 -24t16 -29t7 -25l86 -768q14 14 57 86l102 169l127 201q68 104 132 181t116 109q22 13 40 13q24 0 40 -25q-100 -160 -176 -270l-132 -189l-95 -136q-39 -57 -68 -109t-49 -109t-38 -135q0 -8 6 -14t31 -13t78 -12t147 -9 t236 -6t348 -2q0 -34 -16 -66t-60 -32h-796q18 -62 25 -124t7 -120q0 -40 -14 -42t-62 -2q-2 0 -7 1t-7 1q-4 16 -13 56t-18 85l-17 86q-8 41 -10 59l-9 95l-16 169q-9 96 -18 205t-18 205t-15 168l-8 96q0 6 -4 25l-9 41q-5 22 -9 44t-6 32q0 2 -5 15l-10 27l-9 26 q-4 12 -4 16z" />
<glyph unicode="L" horiz-adv-x="1222" d="M64 1368q0 38 22 48t56 10q38 0 59 -14t21 -74l42 -1196q2 0 22 5t47 14l56 19q29 10 47 18l79 36l120 55l142 65l142 65l120 56l79 37h26q14 0 27 -3t22 -11t11 -26q0 -22 -8 -38t-20 -36q-132 -24 -257 -89l-249 -134q-124 -69 -249 -122t-257 -53q-56 0 -56 86 q-4 284 -9 485t-10 338t-10 219l-8 130q-3 48 -5 70t-2 40z" />
<glyph unicode="M" horiz-adv-x="1554" d="M66 1678q-2 40 14 50t40 10q54 0 97 -26t79 -65t63 -85l49 -84q18 -28 50 -92l72 -144l83 -168l83 -167l73 -140q33 -61 51 -87q8 0 15 7t19 38t34 95l59 178l93 287l136 421q4 12 29 21t43 9q22 0 29 -14t11 -44q20 -188 33 -394t33 -416t50 -417t82 -393l-152 -60 l-130 1480q-8 4 -25 -50l-43 -140l-57 -194q-31 -108 -66 -214t-71 -198t-71 -146t-66 -59h-4q-29 0 -53 63l-49 99l-75 152l-88 178l-88 177l-76 150l-50 98q-26 48 -47 78t-67 30q0 -156 18 -342t39 -377t39 -377t18 -344q10 -20 -5 -38t-40 -26q-13 -4 -28 -4 q-13 0 -27 3q-30 7 -50 37q-20 198 -21 403t-4 412t-18 415t-63 414z" />
<glyph unicode="N" horiz-adv-x="1232" d="M68 1366v108q28 0 61 -18t64 -43t58 -54t43 -51l654 -882q8 38 13 140q4 85 4 189v43q-1 130 -6 273t-15 266t-23 209t-31 104q0 32 12 61t48 29q34 0 56 -40t34 -90t17 -98t5 -62q2 -40 4 -122t5 -185t6 -218t6 -218t5 -186t4 -123q0 -28 10 -53l20 -49q10 -24 19 -49 t9 -51q0 -44 -33 -66t-73 -22q-22 0 -39 6t-27 20t-11 37t9 57l-75 95l-115 147l-135 171l-135 170l-116 146l-76 95q-4 6 -16 18l-26 26l-26 26q-12 12 -18 16q-5 -59 -5 -118q0 -71 7 -141q12 -129 31 -258l37 -257q18 -128 18 -258q0 -34 -6 -62t-54 -44q-44 16 -59 59 q-7 21 -7 41q0 21 8 42z" />
<glyph unicode="O" horiz-adv-x="872" d="M34 476q26 386 111 630t197 348q84 78 174 78q29 0 59 -8q121 -34 219 -204q32 -112 42 -249q4 -57 4 -115q0 -81 -8 -163q-14 -141 -51 -277t-101 -245t-153 -183t-205 -90q-82 0 -137 51t-89 125t-48 156t-14 146zM152 488q0 -54 5 -114t25 -110t61 -83t111 -33 q78 0 142 72t111 185t75 251t33 270q1 28 1 54q0 101 -15 189q-19 111 -66 168q-39 48 -99 48q-12 0 -24 -2q-76 -11 -184 -123l-61 -187q-31 -97 -56 -196t-42 -197t-17 -192z" />
<glyph unicode="P" horiz-adv-x="1158" d="M56 1496v6q0 2 2 6q18 22 43 70t54 96t56 85t47 37t30 -10t17 -24t14 -30t23 -26q68 40 148 69t161 40q50 7 97 7q30 0 60 -3q76 -7 139 -37t107 -86t58 -140q-2 -110 -64 -206t-152 -175t-194 -140t-192 -106t-144 -71t-52 -32v-798q0 -16 -16 -23t-28 -7q-26 0 -42 30 q-46 352 -57 726q-5 179 -5 352q0 189 6 372q-20 -12 -36 -20t-38 -8q-16 0 -29 13t-13 33zM282 1265q-2 -32 -2 -64q0 -48 4 -94q6 -77 30 -141l199 96q105 52 201 118t172 147t114 181q0 54 -39 92t-94 62t-114 34t-97 10q-22 0 -72 -12t-105 -31t-102 -45t-63 -54 l-18 -141q-10 -77 -14 -158z" />
<glyph unicode="Q" horiz-adv-x="1166" d="M64 744q0 36 7 122t24 194t45 223t67 210t92 156t121 61q10 0 26 -2t29 -9t19 -19t-2 -30q36 18 64 29t53 18t50 9t59 2q78 0 134 -47t95 -125t62 -180t31 -214q6 -81 6 -164q0 -31 -1 -62q-3 -114 -16 -216t-35 -185t-48 -133v-8q0 -2 2 -4l142 -256q0 -2 1 -12t1 -14 q0 -62 -60 -62h-14q-10 0 -14 2l-22 35l-34 52l-34 50q-16 23 -24 33q-4 4 -14 15t-14 15q-30 -38 -66 -79t-79 -74t-91 -55t-102 -22q-94 0 -165 35t-122 94t-84 136t-53 160t-28 166t-8 155zM176 724q0 -46 5 -109t18 -131t36 -135t59 -119t88 -85t124 -33q50 0 104 20 t97 54t71 82t28 102v17q0 11 -2 11l-198 428l112 56l144 -342q0 -2 5 -4t7 -2q22 0 36 32t23 81t12 106t4 108t1 86v39q0 48 -1 112t-8 132t-22 134t-44 118t-74 84t-109 32h-24q-91 0 -156 -27q-74 -31 -125 -85t-84 -125t-55 -149t-37 -156t-31 -146q0 -10 -1 -36t-2 -56 t-1 -56v-38z" />
<glyph unicode="R" horiz-adv-x="1146" d="M90 1804q2 0 15 -2t29 -3t30 -3t16 -2q12 0 34 -4t22 -26v-194q38 8 87 40t115 65t149 56q55 15 119 15q34 0 70 -4q164 -32 237 -78t78 -101v-10q0 -51 -45 -107q-50 -62 -132 -127t-183 -130l-198 -126l-177 -114q-80 -53 -120 -95q36 -16 103 -50l148 -76l169 -88 l166 -85l140 -69q62 -30 90 -40q22 -10 42 -20l30 -19q14 -9 14 -17q0 -10 -6 -25t-17 -29t-23 -24t-24 -10q-4 0 -9 1t-7 1q-6 2 -31 15l-53 28q-28 15 -53 27l-33 16q-24 8 -78 33l-122 58l-144 71l-144 71l-122 57q-54 24 -78 30v-682h-100zM204 996q10 10 63 37l129 67 l163 89q87 49 165 101t137 103t76 95q6 14 6 28q0 28 -24 51q-35 35 -143 55q-16 1 -33 1q-47 0 -104 -8q-77 -11 -154 -37t-143 -65t-106 -91l-9 -93l-10 -111q-5 -58 -9 -116t-4 -106z" />
<glyph unicode="S" horiz-adv-x="1232" d="M26 936q0 86 38 172t101 166t145 149t171 120t176 80t163 29q20 0 42 1h9q17 0 30 -3q17 -4 28 -17t11 -39q0 -64 -42 -92t-102 -28l-86 62q-52 0 -113 -29t-125 -77t-123 -110t-105 -129t-74 -133t-28 -120q0 -78 44 -126t116 -76t165 -41t189 -22l189 -17 q93 -8 165 -27t116 -53t44 -92q10 -15 10 -31q0 -24 -21 -50q-35 -45 -107 -91t-171 -91t-203 -82t-202 -62t-168 -33q-20 0 -34 14t-6 46q6 22 57 42t126 43l166 49q91 26 176 60t155 76t104 98q0 32 -44 50t-116 30t-164 20t-189 22t-189 36t-164 61t-116 98t-44 147z" />
<glyph unicode="T" horiz-adv-x="1356" d="M26 1352q0 22 19 45t41 25l596 86q2 10 7 29t13 38t21 33t31 14q26 0 42 -13t27 -30l20 -30q9 -13 21 -13h18q22 2 71 8t113 12t135 14t135 14l113 11q49 5 71 9q6 0 32 1t36 1q0 -42 -45 -70t-115 -46t-156 -28t-167 -17t-149 -12t-102 -11q-4 -59 -4 -119 q0 -103 11 -210q17 -171 42 -344l48 -344q23 -171 23 -327q8 -32 7 -49t-12 -24t-33 -7t-54 2q-22 80 -39 188t-30 231t-25 254l-23 260q-11 129 -25 247t-30 214h-40q-72 0 -144 -14t-143 -30t-143 -30t-144 -14q-22 0 -46 6t-24 40z" />
<glyph unicode="U" d="M70 1288q-2 11 -2 19q0 10 3 17q5 12 16 17t25 6t26 1h18q12 0 24 -2t21 -9t9 -21v-948q0 -38 12 -79t34 -75t55 -56t75 -22q86 6 147 90t105 210t73 275t51 287l39 245q17 107 37 149q28 24 48 24q10 0 19 -6q25 -18 37 -57t14 -85v-21q0 -30 -4 -45q0 -148 -15 -295 t-15 -297q0 -96 9 -192t20 -191t20 -190t9 -189q0 -16 -2 -35t-10 -35t-21 -27t-37 -11q-2 0 -7 1t-9 1l-86 854q-22 -82 -58 -181t-91 -186t-130 -146t-175 -59q-78 0 -126 33t-75 87t-39 120t-16 132q-2 22 -4 90t-5 160t-6 196t-6 196t-5 160t-2 90z" />
<glyph unicode="V" horiz-adv-x="1194" d="M26 1286v8q0 28 26 36t48 8q26 0 43 -16t27 -42l512 -1082l342 1424q4 16 16 22t28 6q22 0 48 -17t22 -39l-342 -1566q-16 -28 -44 -28h-7q-33 4 -67 25t-64 48t-44 41l-542 1166q-2 2 -2 6z" />
<glyph unicode="W" horiz-adv-x="2000" d="M38 1308q4 12 18 27t30 30t33 29t29 22q18 -14 31 -34t30 -68t43 -130l68 -220l105 -339l155 -483q8 8 32 72t57 161l72 216l77 240l72 231l58 190q8 30 11 60t10 55t24 41t57 16q7 3 14 3q22 0 43 -34q27 -45 55 -129t59 -196t69 -234t86 -243t112 -221l314 1280 q4 16 17 28t29 12t34 -16t34 -52l-312 -1252q0 -30 -6 -69t-17 -75t-26 -63t-34 -33t-41 15t-46 83q-124 222 -222 460t-178 506l-284 -938q-14 -98 -40 -157t-56 -88t-61 -36q-20 -4 -37 -4q-10 0 -18 1q-24 4 -37 14t-7 14q-52 68 -89 165t-67 212t-58 240t-61 248 t-77 237t-104 206z" />
<glyph unicode="X" horiz-adv-x="1052" d="M48 142q36 66 93 142l113 158q56 82 102 165t62 161l-284 598q-2 2 -3 16t-1 22q0 38 12 58t52 20q4 0 14 -1t10 -3l284 -596q12 18 42 68l70 118l84 146l86 151l77 135l55 96q22 0 47 -6t25 -40v-9q0 -5 -2 -5l-420 -780l336 -642q2 -4 3 -19t1 -23q0 -12 -1 -27t-7 -27 t-19 -18q-6 -3 -15 -3t-20 3q-10 4 -32 26t-26 32l-54 131q-30 71 -66 144t-78 142t-86 123q-22 -18 -51 -56t-61 -86t-64 -103l-63 -105l-57 -93q-26 -43 -44 -69z" />
<glyph unicode="Y" horiz-adv-x="1100" d="M26 1400v10q0 26 20 35t42 9l124 -157l135 -174q69 -87 140 -166t139 -131h30q8 16 31 77l55 146l67 187l67 201q32 99 56 185t34 142q4 4 14 4q34 0 55 -29q18 -24 18 -51q0 -5 -1 -10l-99 -347l-65 -221q-26 -86 -44 -138t-36 -99l-39 -103l-54 -151l-82 -242 l-121 -377q-4 0 -14 -1t-14 -1q-58 0 -58 58q0 80 25 157t54 154t50 154q16 60 16 124q0 18 -1 37l-144 155q-78 83 -153 173t-140 187t-105 197q-2 2 -2 6z" />
<glyph unicode="Z" horiz-adv-x="1526" d="M48 114q0 2 6 11t35 47l90 116l172 220l279 357l412 529v28q-112 14 -231 22t-239 10q-80 1 -160 1h-79q-119 -1 -229 -5q-16 10 -19 44t-3 50q0 4 85 6t213 2t278 -2t280 -3t219 -2t95 -1l18 -94l-1024 -1280h82q58 0 124 -1t125 -1h83h202q96 0 190 2t189 9t201 19 q22 -8 26 -24t4 -32v-29q0 -15 -5 -28t-15 -21t-28 -6q-144 -18 -309 -24t-332 -8t-327 -7t-294 -19q-2 0 -14 -1t-16 -1q-42 0 -63 39t-21 77z" />
<glyph unicode="[" horiz-adv-x="1072" d="M56 2412v14q0 16 1 35t8 33t25 18t54 -10q24 2 75 4t115 5t135 6l136 6q65 3 116 5t75 4q6 0 24 1t38 1h37h23q0 -34 -46 -56t-117 -35t-155 -19t-161 -8t-135 -1t-76 3l-30 -28q0 -4 -1 -24t-2 -46l-2 -51q-1 -25 -1 -39q0 -202 16 -402t37 -400l41 -401 q20 -201 28 -401q2 -46 4 -110t5 -133l6 -137q3 -68 6 -123l5 -89l2 -34l28 -58q2 -2 25 -3t33 -1q68 0 152 15t165 34t148 39t103 32q28 -60 11 -96t-67 -20l-626 -170q-16 -4 -31 5t-27 24t-20 31t-8 26v568l-170 1936v11q0 9 -1 19t-1 20z" />
<glyph unicode="\" horiz-adv-x="1262" d="M28 2218l20 42l19 30q9 14 19 14q14 0 45 -20t39 -38l1052 -2160q2 -4 2 -14v-14q0 -38 -18 -49t-52 -11q-26 0 -43 2t-29 28l-854 1878z" />
<glyph unicode="]" horiz-adv-x="1166" d="M0 2560q0 24 28 39t73 24t98 13t104 6t92 2t59 2q32 2 88 7t121 10t133 8t122 3h33q19 0 36 -5t28 -16t11 -33q-18 -94 -26 -243t-8 -334t7 -393t17 -420t23 -416t26 -380t25 -312t20 -210q0 -20 -37 -38t-94 -33t-126 -28t-131 -22t-109 -14t-61 -5q-26 0 -54 18t-44 40 l30 28l426 114l28 28q0 2 1 14t2 29t1 33v26q0 304 -16 607t-34 606t-31 607t-7 610q-40 20 -59 25t-51 5q-76 0 -150 -10t-146 -21t-145 -21t-147 -10h-24q-18 0 -39 1t-39 1h-26q-6 6 -17 28t-11 30z" />
<glyph unicode="^" horiz-adv-x="890" d="M62 1542q0 4 1 10t1 8l282 526q4 10 26 23t46 13q2 0 6 -1t6 -1l364 -424q44 -10 52 -23t8 -35q0 -10 -4 -24t-13 -26t-23 -21t-36 -9h-8q-4 0 -4 2l-310 390q-12 18 -42 18h-12l-252 -442q-4 -4 -15 -10t-15 -6q-40 0 -49 8t-9 24z" />
<glyph unicode="_" horiz-adv-x="1394" d="M28 86q2 6 51 22t135 40l202 54q116 30 252 62l284 66l300 68q2 2 13 2h17q38 0 48 -21t10 -55q0 -26 -18 -43t-65 -32t-131 -32l-217 -45l-321 -69q-188 -41 -444 -103h-14q-14 0 -33 6t-36 18t-27 28t-6 34z" />
<glyph unicode="`" horiz-adv-x="354" d="M38 1594v16q0 28 12 50t44 22l91 -104q45 -54 70 -101t21 -83t-58 -50l-51 55q-29 31 -57 65t-49 68t-23 62z" />
<glyph unicode="a" horiz-adv-x="834" d="M2 278q0 48 22 137t60 195t90 215t112 198t125 146t129 57q21 4 40 4q66 0 101 -44q28 -35 28 -99q0 -40 -11 -91q0 -148 12 -252t27 -200t27 -200t12 -250q0 -28 -6 -47t-54 -19q-6 0 -16 12t-10 18q-12 58 -20 139l-17 164q-9 83 -21 157t-36 120q-114 -232 -201 -364 t-152 -189q-62 -54 -105 -54h-5q-45 3 -73 41t-41 96t-17 110zM112 292q0 -80 24 -90q5 -2 11 -2q21 0 49 27q36 35 81 102t89 142t82 147l62 116q18 46 30 86t19 77t9 75t2 80q-14 18 -33 18q-16 0 -35 -13q-42 -29 -89 -95t-96 -159t-91 -189t-73 -182t-41 -140z" />
<glyph unicode="b" horiz-adv-x="1006" d="M85 389q3 197 10 426t13 497q3 134 3 280.5t-3 305.5q26 0 52 3q16 2 30 2q9 0 18 -1q22 -2 36 -13t14 -41q0 -82 -6 -189t-14 -235t-14 -275t-6 -309q78 102 145 167t127 103t117 49q37 7 73 7q20 0 40 -2q64 0 105 -35t64 -89t32 -119t9 -127q-2 -44 -7 -95t-25 -110 t-61 -123t-115 -135t-186 -147t-272 -156q-52 -14 -85 -18q-26 -3 -44 -3h-8q-19 1 -26 4t-7 5q-10 141 -10 295q0 39 1 78zM190 148q10 8 59 31t116 61t144 91t143 124t113 160t55 197q0 30 -9 66t-28 67t-48 52t-69 21q-82 0 -154 -45t-132 -111t-107 -143t-75 -141z" />
<glyph unicode="c" horiz-adv-x="890" d="M58 512l13 174q7 94 21 187t38 178t63 150t96 104q54 37 131 37h8q56 0 86 -47t43 -113t14 -136t1 -114q-46 0 -75 39t-44 90t-21 99l-8 64q-2 0 -7 1t-7 1q-38 0 -71 -42t-60 -107t-47 -146t-34 -159t-21 -144t-7 -102q-3 -32 -3 -66q0 -29 2 -60q5 -68 27 -128t62 -104 t106 -58q82 0 134 22t84 59t50 84t34 97t34 99t52 91q26 6 38 -1t17 -21t5 -30v-26q0 -92 -32 -179t-91 -155t-143 -109t-190 -41q-90 0 -148 57t-91 137t-46 168t-13 150z" />
<glyph unicode="d" horiz-adv-x="720" d="M19 370v18q0 117 12 233q13 125 45 236t91 189t148 112q47 18 106 18q51 0 111 -14q4 37 4 90q0 35 -2 77q-4 105 -13 220l-18 223q-9 108 -11 178q0 20 18 29t41 12q14 2 27 2q9 0 17 -1q21 -2 27 -8q-3 -181 -3 -359q0 -89 1 -177q2 -264 6 -525l8 -519q4 -258 4 -516 q0 -24 -3 -51t-39 -27q-14 0 -27 7t-17 23l-8 566q-22 -50 -56 -117t-80 -127t-106 -102t-134 -42q-32 0 -51 8t-34 23t-27 37t-30 50q-6 108 -7 234zM117 423q-1 -21 -1 -42q0 -78 15 -141q19 -80 67 -108q48 0 91 39t78 99t62 134t46 143t29 126t10 85q0 22 2 71 q1 16 1 33q0 33 -3 65q-4 49 -19 87t-47 38h-9q-63 0 -118 -55q-59 -59 -102 -152t-70 -206t-32 -216z" />
<glyph unicode="e" horiz-adv-x="1052" d="M-20 522q0 16 7 23t23 19q48 40 82 104t63 136t61 144t75 130t105 93q59 33 142 33h10q38 0 85 -17t87 -48t67 -73t27 -92q10 -18 -22 -51t-88 -72t-125 -80l-134 -77l-114 -63q-49 -27 -65 -39q-10 -24 -17 -52t-10 -54t-4 -47t-1 -33q0 -42 -4 -93q-1 -17 -1 -33 q0 -33 5 -63q8 -45 37 -75t97 -30q74 0 139 36t120 90t101 116t82 116t65 90t49 36q22 0 48 -8t26 -36q0 -40 -32 -96t-85 -118t-120 -123t-136 -109t-136 -78t-117 -30q-100 0 -151 49t-73 122t-23 157t-3 154q-10 -2 -33 -6t-47 -2t-43 13t-19 37zM288 758q34 0 97 26 t126 63t109 80t46 79q0 20 -15 34t-36 23t-44 13t-39 4q-38 0 -81 -37t-79 -89t-60 -106t-24 -90z" />
<glyph unicode="f" horiz-adv-x="786" d="M46 812q0 22 22 42t50 40t57 38t43 34q-4 36 -6 134q-1 39 -1 83q0 65 2 140q3 125 15 259t38 239t68 165q31 44 74 44q16 0 34 -6q48 0 85 -28t64 -69t41 -89t14 -90q0 -22 -10 -47t-36 -25h-6q-2 0 -6 2q-52 136 -89 172q-19 18 -34 18t-28 -17q-25 -35 -42 -126 t-28 -210t-20 -251t-19 -246q46 12 76 23t54 23t44 24t44 22q48 22 104 43t110 21q0 -66 -23 -108t-60 -68t-84 -39t-94 -22l-90 -17q-43 -8 -73 -22q6 -144 18 -253l22 -194q10 -85 16 -155q3 -35 3 -69.5t-3 -68.5q0 -16 1 -44t-3 -54t-17 -45t-41 -19t-41 12t-17 50 q-14 180 -22 306t-12 211t-4 134v73v31q0 7 -2 7q-10 0 -27 -8t-36 -18l-37 -19q-18 -9 -32 -9q-22 0 -39 9t-17 37z" />
<glyph unicode="g" horiz-adv-x="996" d="M34 336q4 102 41 225t96 242t136 222t164 162t180 63h9q88 0 172 -72q2 -2 7 -59l13 -149l18 -206q10 -114 19 -231t16 -224t13 -185q2 -39 2 -79q0 -91 -12 -189q-18 -142 -59 -277t-102 -253t-140 -193t-175 -96q-26 -6 -53 -6q-73 0 -153 41q-6 0 -19 1t-21 7t-4 18 t30 34q194 10 307 101t168 236t66 330q6 102 6 207q0 86 -4 176q-9 198 -25 397q-14 177 -14 332v39q-96 -282 -180 -454t-157 -260t-132 -106q-25 -8 -47 -8q-31 0 -56 15q-44 25 -72 82t-38 117zM150 352q22 -70 58 -71h1q35 0 78 47q43 48 92 135t98 189l97 210l90 200 q0 24 -11 45q-8 15 -30 15q-8 0 -19 -2q-62 -14 -121 -60t-109 -114t-91 -149t-71 -162t-46 -155t-16 -128z" />
<glyph unicode="h" horiz-adv-x="1062" d="M76 86v1564q0 18 16 23q11 4 25 4q5 0 11 -1q20 -2 38 -10t24 -16l28 -1252q24 40 45 112t50 155t68 167t97 150t141 103q65 29 150 29q23 0 47 -2q76 0 122 -48t48 -126l24 -886q0 -10 -4 -27t-18 -29t-40 -15h-9q-24 0 -57 13l-26 978q-29 11 -57 11q-52 0 -101 -36 q-76 -55 -145 -157t-131 -230l-115 -244q-53 -116 -97 -198t-78 -92q-28 0 -42 10t-14 50z" />
<glyph unicode="i" horiz-adv-x="302" d="M44 1636q0 26 18 35t40 9q44 0 55 -29t11 -67q-12 -24 -32 -34t-41 -4t-36 28t-15 62zM74 994q2 158 20 296q4 2 21 3t23 1q30 0 49 -10t19 -44q0 -130 -1 -285l-2 -314q-1 -159 -1 -314t4 -283q1 -7 1 -14q0 -27 -14 -36q-17 -12 -41 -12q-28 0 -45 12t-13 50 q0 144 -6 305t-11 324q-4 116 -4 230q0 46 1 91z" />
<glyph unicode="j" horiz-adv-x="256" d="M-390 -476q-2 42 15 46t44 -16t62 -54l71 -69q36 -35 68 -60t56 -27q42 0 73 26t53 68t36 94t22 102t11 94t3 72q-4 170 -18 336t-26 331t-18 332q-2 63 -2 126q0 106 6 213q10 22 25 26t31 4q20 0 35 -4t23 -26q-4 -93 -4 -182t4 -174q8 -170 22 -336t26 -333t12 -347 q0 -26 -5 -75t-17 -108t-30 -121t-44 -113t-59 -84t-75 -33q-40 0 -107 28t-132 70t-113 94t-48 100zM66 1748q0 12 10 25t23 24t28 17t25 6q22 0 26 -22t4 -34q0 -60 -60 -60q-22 0 -39 10t-17 34z" />
<glyph unicode="k" horiz-adv-x="976" d="M58 -48l64 1754q40 38 66 38q5 0 9 -1q27 -9 41 -60t16 -134q1 -28 1 -58q0 -60 -3 -128q-4 -103 -12 -217t-15 -224t-9 -210v-39q0 -76 6 -135h7q5 0 7 2q116 116 207 245t164 243l130 199q57 85 105 115q34 0 57 -11t23 -51q0 -4 -1 -14t-1 -14q-56 -114 -122 -228 t-144 -221t-168 -203t-194 -174q0 -2 -1 -7t-1 -7q0 -22 36 -49t93 -52t127 -49t138 -42t126 -29t92 -11q0 -8 1 -33t-3 -52t-15 -48t-37 -21h-8q-4 0 -6 2l-636 256q-2 -130 -18 -211t-37 -120q-20 -37 -42 -37h-2q-23 2 -41 36z" />
<glyph unicode="l" horiz-adv-x="314" d="M48 1906q20 14 35 22t35 8q16 0 27 -6t17 -24q44 -434 61 -877t27 -881q0 -20 -1 -54t-3 -36q-28 -15 -52 -15h-3q-25 1 -45 13t-31 28t-11 30q16 102 22 255q5 131 5 278v49q-1 174 -8 358t-18 349t-26 297t-31 206z" />
<glyph unicode="m" horiz-adv-x="1318" d="M66 1308q0 46 20 54t52 8q4 0 20 -1t22 -3q20 -66 26 -172t9 -230l6 -257q3 -133 15 -253q30 176 52 291t40 185t35 104t38 46t47 10t62 -2q40 0 65 -31t40 -79t22 -106l14 -113q7 -55 15 -99t26 -62q54 164 94 269t69 166t51 87t40 32t33 1t31 -5q60 0 90 -62 q36 -100 49 -190t15 -173q1 -55 1 -107v-51v-21q0 -64 5 -126q6 -72 25 -140t65 -136q-18 -36 -36 -48t-48 -12q-28 0 -47 19t-33 47t-22 57l-14 51q-8 318 -27 488t-57 179h-4q-37 0 -93 -148q-59 -157 -145 -491q-8 -10 -21 -13t-27 -2l-29 2q-15 1 -27 -3 q-56 328 -93 471q-30 116 -61 116q-7 0 -14 -6q-38 -33 -84 -239t-120 -576l-112 -28q-6 64 -10 170l-9 232l-10 261q-5 135 -12 258t-17 223t-22 158z" />
<glyph unicode="n" horiz-adv-x="1100" d="M66 1256q0 54 58 54h18q8 0 16 -18t18 -66t23 -145t30 -252t39 -389q48 152 75 294t69 259t118 205t222 132q80 -14 129 -98t77 -206t39 -265t14 -274t3 -235t4 -148q-6 -18 -20 -31t-30 -19t-32 -2t-30 24q0 24 -4 100t-11 177t-14 215l-13 215q-6 101 -11 177t-7 100 q-46 82 -92 93q-10 2 -20 2q-36 0 -71 -31q-45 -40 -87 -122t-80 -185t-71 -217t-58 -219t-41 -191t-22 -132q-6 -16 -27 -30t-45 -21q-17 -5 -33 -5q-7 0 -14 1q-23 3 -33 25q-26 300 -45 602z" />
<glyph unicode="o" horiz-adv-x="606" d="M40 503q0 97 12 197t36 208l54 232q0 24 14 45t36 36t46 24t46 9q50 0 90 -31t72 -76t55 -95l39 -86q18 -78 26 -176q4 -52 4 -106q0 -47 -3 -95q-7 -103 -31 -202t-69 -181t-115 -137t-166 -69q-50 0 -77 35t-39 84t-13 101t-1 84q-16 102 -16 199zM167 516 q1 -102 3 -204q0 -24 1 -44t4 -38t8 -39t15 -49h14q52 0 90 36t65 92t44 126t27 138t14 127t4 95v44q0 30 -2 66t-8 75t-17 71t-29 52t-46 20q-21 7 -39 7q-25 0 -45 -13q-34 -22 -55 -74t-32 -128t-14 -167q-2 -68 -2 -143v-50z" />
<glyph unicode="p" horiz-adv-x="1098" d="M60 1130q6 30 16 47q6 11 27 11q12 0 29 -4q46 -10 55 -51q6 -26 6 -57q0 -17 -2 -36q-5 -52 -14 -103q-4 -24 -4 -44q0 -22 5 -37l150 106q80 56 167 99t180 64q48 11 96 11q46 0 91 -10q116 -26 161 -78q37 -43 37 -98q0 -11 -1 -22q-9 -68 -63 -149t-132 -163 t-173 -162t-186 -148t-170 -119t-127 -75q-2 -28 -5 -84t-6 -127t-7 -149t-7 -149t-6 -127t-3 -82q-4 -2 -16 -5t-27 -4t-28 -2h-8q-7 0 -11 1q-6 0 -13 13t-7 19q26 234 29 444q1 70 1 139q0 139 -4 275q-6 204 -17 413t-13 443zM185 557q3 -45 9 -95t13 -97t9 -81 q84 64 196 131t218 145t188 173t108 215q4 18 4 31q0 23 -11 33q-17 16 -57 24q-32 7 -67 7q-58 0 -126 -19q-109 -30 -210 -88t-177 -138t-94 -164q-4 -21 -4 -48q0 -14 1 -29z" />
<glyph unicode="q" horiz-adv-x="930" d="M46 300q0 62 21 142t58 164t88 164t111 143t127 102t137 39q88 0 123 -43t47 -129l206 -1506h-120q-4 6 -12 57t-18 131l-22 180l-25 206l-26 210q-13 104 -25 189t-23 144t-19 77q-10 -64 -25 -144t-59 -153t-127 -127t-231 -62q-100 0 -143 58t-43 158zM160 282 q0 -48 12 -67t64 -19q29 -11 57 -11q35 0 67 17q58 30 104 95t81 153t58 180t33 176q8 70 8 121v19q-104 0 -193 -69t-153 -171t-101 -217t-37 -207z" />
<glyph unicode="r" horiz-adv-x="902" d="M58 1072v16q0 24 17 33t39 9q18 0 33 -4t25 -26q6 -34 13 -93l16 -130l18 -149q9 -78 20 -148t22 -126t23 -84q-1 49 -1 95q0 153 15 274q20 157 77 256t156 138q63 25 147 25q47 0 100 -8q68 0 68 -74q0 -30 -37 -40t-84 -13t-92 -7t-63 -22q-80 -46 -113 -139t-46 -219 t-19 -276t-30 -308q0 -22 -18 -34t-43 -12t-49 11t-36 35z" />
<glyph unicode="s" horiz-adv-x="834" d="M56 634q0 104 46 198t120 163t169 110t195 41q40 0 69 -6t29 -52q0 -30 -26 -58t-60 -28q-2 0 -11 4t-18 10t-18 10t-11 4q-22 6 -44 6q-48 0 -94 -28q-66 -40 -118 -107t-84 -146t-32 -141q0 -26 11 -40t27 -21t37 -8t43 -1q46 0 91 14t89 31t89 31t93 14q24 0 50 -13 t49 -36t38 -53t17 -66q6 -12 6 -27q0 -23 -13 -54q-21 -51 -64 -109t-102 -117t-120 -107t-118 -78q-53 -28 -92 -28h-5q-46 0 -53 27t-7 61q0 -2 47 27t113 76t135 104t113 108q48 56 48 92q0 33 -60 43q-38 6 -71 6q-35 0 -64 -7q-55 -13 -99 -31l-83 -34q-31 -13 -68 -13 q-9 0 -19 1q-98 0 -134 61t-36 167z" />
<glyph unicode="t" horiz-adv-x="612" d="M-78 985q-1 10 -1 18.5t1 14.5l214 122l12 568q5 25 27 25q4 0 10 -1q31 -6 65 -14q4 0 14 -3t14 -5q-4 -62 -10 -132t-10 -140t-5 -136v-19q0 -55 5 -101l334 94q8 2 14 -13t11 -35t7 -39t2 -21l-376 -158q0 -20 3 -96l7 -179l9 -222l9 -222q4 -103 6 -179t2 -96 q-4 -66 -38 -66t-74 32l-56 966q-22 -10 -41 -22t-37 -22t-36 -15t-38 -1q-12 2 -21 18t-15 37t-8 42z" />
<glyph unicode="u" horiz-adv-x="882" d="M74 1074q8 22 23 26t35 4q16 0 31 -4t25 -26q0 -26 2 -83t6 -129l8 -151l8 -151l7 -128q3 -56 5 -82q2 -16 6 -52t11 -75t20 -70t33 -33q32 0 67 29t68 73t62 98t52 104t36 90t15 58q4 36 8 107t7 151t4 151t1 107l122 -6q1 -51 1 -100q0 -121 -4 -225q-3 -91 -3 -175 q0 -50 1 -98q3 -128 20 -248t65 -250q-6 -6 -27 -18t-29 -12q-56 0 -75 36t-24 86t-9 101t-30 79q-8 -26 -43 -72t-81 -92t-96 -80t-88 -34q-72 0 -117 67t-70 171t-34 232t-11 250t-2 222t-6 152z" />
<glyph unicode="v" horiz-adv-x="806" d="M26 924q0 34 27 40t49 6q24 0 56 -42t70 -109l80 -147l85 -157q43 -77 88 -139t89 -92q12 202 19 345t10 240t3 154t-1 88t-2 41t-1 14q0 40 14 49t40 9q28 0 59 -9t31 -43q5 -83 5 -167q0 -63 -3 -126q-6 -147 -17 -293t-18 -286q-3 -65 -3 -129q0 -73 4 -143 q-6 -4 -21 -9t-33 -10t-35 -7t-23 -2q-22 4 -69 61t-105 144t-120 193l-118 206l-99 182q-43 82 -59 124q0 2 -1 7t-1 7z" />
<glyph unicode="w" horiz-adv-x="1290" d="M62 1063q0 25 11 45t37 30q24 0 43 -17t27 -39l256 -656q2 32 11 113t18 172l17 172q8 81 12 113q2 22 4 51t10 56t24 46t48 19q22 0 32 -4t24 -26l426 -730v752q64 0 90 -32t31 -79q2 -21 2 -44q0 -27 -3 -56q-4 -40 -4 -73v-22q0 -16 2 -67t5 -118t6 -143t6 -143 t5 -118t2 -67q8 -21 8 -36t-9 -23q-17 -15 -45 -10t-57 25t-39 44l-454 768q-14 -334 -30 -559t-28 -379q-8 -24 -23 -26h-6q-12 0 -26 6q-17 8 -33 23t-26 27l-38 105l-60 160l-71 189l-71 189l-61 160q-27 71 -39 105q-14 20 -24 46t-10 51z" />
<glyph unicode="x" horiz-adv-x="1034" d="M38 1000q0 58 60 58q38 6 61 -7t41 -39t37 -63t47 -77t71 -81t111 -75q14 38 25 121t19 178t12 188t4 153q8 8 29 14q18 5 38 5h7q24 -1 44 -9t24 -24q6 -44 6 -88q0 -51 -8 -100q-14 -92 -35 -184t-39 -183q-12 -63 -12 -127q0 -29 2 -58l396 -398q2 -2 6 -17t4 -23 q0 -12 -2 -26t-9 -26t-20 -19t-33 -3l-72 76l-95 96q-51 50 -104 96t-101 74h-6h-6q-2 0 -2 2q-12 0 -20 -13t-23 -69t-41 -171l-72 -319q-28 -28 -54 -28h-4q-28 2 -45 22t-22 53q-1 8 -1 16q0 25 12 51l144 598q-38 44 -97 97l-116 109q-57 56 -103 112t-58 108z" />
<glyph unicode="y" horiz-adv-x="826" d="M50 966q0 30 10 51t52 21q8 0 30 -10t28 -18q48 -78 100 -174l109 -192q57 -96 119 -183t132 -149l52 870q2 0 12 1t14 1q20 0 41 -5t29 -29q1 -53 1 -124v-74q-1 -118 -4 -243t-7 -239t-6 -184q-2 -44 -7 -133t-13 -201t-18 -236l-19 -236l-16 -201q-7 -89 -11 -131 h-116l66 862l-572 916q-2 2 -4 17t-2 23z" />
<glyph unicode="z" horiz-adv-x="1406" d="M62 870q-2 6 -2 11q0 15 16 29q74 0 173 30t203 70l203 78q99 38 175 54q72 0 72 -74q0 -80 -28 -156t-69 -149t-89 -145t-89 -145t-69 -148t-28 -155v-28l812 166h16q30 0 56 -18t38 -42q6 -13 6 -25q0 -11 -5 -23q-11 -24 -55 -36q-10 0 -20 -2t-42 -7l-94 -15 q-62 -10 -174 -31l-284 -53l-424 -78q-5 19 -5 44q0 38 12 88q19 82 55 177t84 197l93 195l81 168q36 75 50 119q0 2 1 6t1 8t-1 9t-1 7l-138 -54l-150 -58q-76 -28 -148 -52t-132 -36q-8 -6 -31 5t-42 29t-27 40z" />
<glyph unicode="{" horiz-adv-x="794" d="M24 336q0 136 4 222t24 134t61 61t117 3q30 -4 30 27t-21 72t-54 79t-69 50q-60 42 -66 76t19 53t69 24t86 -9q38 14 61 27t29 33t-7 54t-51 92q-70 106 -83 203t17 176t94 134t147 75t176 -1t179 -91q0 -32 -21 -58t-49 -26q-2 0 -6 1t-6 1q-22 62 -75 82t-113 6 t-117 -57t-88 -108t-24 -146t73 -171q82 -110 92 -168t-48 -80l-27 -11l-60 -24q-33 -13 -60 -25l-27 -12q6 -26 30 -60t51 -65l50 -57q23 -26 29 -34q24 -50 11 -80t-48 -52t-79 -44t-81 -56t-56 -88t-1 -142q0 -88 31 -153t78 -111t104 -77t110 -53l95 -38q42 -16 60 -32 q8 -10 5 -21t-13 -23t-23 -22l-21 -16q-56 6 -137 18t-162 61t-147 153t-92 294z" />
<glyph unicode="|" horiz-adv-x="314" d="M48 1906q20 14 35 22t35 8q16 0 27 -6t17 -24q44 -434 61 -877t27 -881q0 -20 -1 -54t-3 -36q-30 -16 -55 -15t-45 13t-31 28t-11 30q16 102 22 255t5 327t-8 358t-18 349t-26 297t-31 206z" />
<glyph unicode="}" horiz-adv-x="794" d="M-16 1786q82 70 170 91t166 0t139 -76t89 -134t16 -178t-78 -205q-36 -58 -49 -92t-7 -54t28 -32t58 -26q38 14 80 8t65 -26t17 -54t-62 -76q-34 -10 -65 -49t-50 -81t-20 -73t29 -27q70 12 109 -1t58 -61t23 -135t4 -225q-16 -128 -50 -215t-78 -145t-96 -90t-104 -49 t-99 -22t-81 -9q-8 6 -20 17t-22 22t-14 22t6 21q16 16 56 33l90 39q50 22 105 53t100 78t74 112t29 155q16 88 -2 143t-53 89t-77 56t-74 44t-46 51t10 79q4 10 27 36l49 58q26 32 48 66t28 60l-26 12q-26 12 -57 25l-56 24l-25 11q-54 22 -45 81t87 167q62 90 68 173 t-23 148t-83 110t-111 59t-107 -7t-70 -83q-2 0 -6 -1t-6 -1q-26 0 -46 25t-20 59z" />
<glyph unicode="~" horiz-adv-x="1044" d="M84 1392q4 68 34 115t74 74t96 38t100 6t88 -23t58 -48q30 -102 60 -137t59 -30t56 39t50 71t43 64t36 19q32 10 59 11t39 -39q12 -34 -9 -75t-59 -82t-84 -76t-86 -55q-34 -8 -66 -4t-60 16t-47 30t-25 38q-28 16 -41 47t-27 61t-34 51t-62 19q-46 0 -66 -22t-34 -53 l-28 -63q-14 -32 -44 -54q-22 -8 -36 -5t-22 12t-12 24t-10 31z" />
<glyph unicode="&#xa0;" />
<glyph unicode="&#xa1;" horiz-adv-x="314" d="M62.4922 794.168q-2.61328 -41.3896 0 -82.0127q2.61426 -40.624 2.61426 -60.5518q0 -157.895 7.84082 -311.957t18.2949 -316.557q6.9707 -13.7969 14.8115 -18.3955t21.7803 -4.59863q19.166 0 27.0078 9.19727q7.84082 9.19824 10.4541 21.4619 q2.61426 12.2637 1.74219 26.8271q-0.871094 14.5625 -0.871094 23.7607v522.739q0 30.6582 6.09863 64.3838l12.1973 67.4502q6.09863 33.7246 8.71191 63.6182q2.61426 29.8926 -4.35645 51.3535q-3.48438 18.3955 -21.7803 32.1924q-18.2949 13.7969 -39.2041 13.7969 q-34.8486 0 -48.7881 -30.6592t-16.5537 -72.0498zM187.076 1442.61v-13.7969v-13.0303q0 -8.43164 1.74219 -17.6289q1.74316 -9.19727 7.8418 -16.0957q6.09766 -6.89844 16.5527 -6.89844q40.0762 0 47.0459 16.0957t6.96973 37.5576q0 24.5273 -6.96973 39.8564 q-6.96973 15.3301 -47.0459 15.3301q-10.4551 0 -16.5527 -6.89844q-6.09863 -6.89844 -7.8418 -16.0957q-1.74219 -9.19824 -1.74219 -18.3955z" />
<glyph unicode="&#xa2;" horiz-adv-x="898" d="M58 512q8 114 20 249t43 256t89 210t158 109q-14 140 -34 226q20 14 35 22t35 8q16 0 27 -6t17 -24l12 -124q6 -60 10 -116q44 -22 96 -58t89 -80t47 -89t-28 -85q-28 0 -55 20t-54 49t-50 59l-41 52q6 -118 11 -236t9 -245t6 -264t6 -289v-22q62 28 93 79t51 112l40 123 q20 62 62 114q26 6 38 -1t17 -21t5 -30v-26q0 -72 -20 -143t-58 -131t-93 -107t-123 -73l11 -100q5 -46 5 -48q-58 -34 -94 -37t-36 25q4 30 7 64t7 70q-16 -4 -31 -4h-31q-90 0 -148 57t-91 137t-46 168t-13 150zM169 400q5 -68 27 -128t62 -104t106 -58q16 0 31 1t29 3 q4 122 3 265t-7 288t-16 287t-22 266q-34 -14 -63 -62t-53 -114t-42 -142t-30 -149t-18 -133t-6 -94q-6 -58 -1 -126z" />
<glyph unicode="&#xa3;" horiz-adv-x="1226" d="M28 852q0 4 2 20t4 22q34 4 111 15t171 23q32 134 92 241t138 183t169 117t181 41q54 0 93 -20t65 -54t38 -78t12 -94q-40 0 -64 21t-44 45t-42 45t-56 21q-64 0 -134 -29t-134 -87t-116 -143t-80 -195l154 19l100 13q4 0 22 1t38 2t38 2t22 1q0 -26 -36 -50t-93 -45 t-129 -38t-144 -31l-44 -294q6 -74 -1 -154t-10 -143t6 -98t47 -19q22 8 53 33t75 51t99 48t123 28t151 -12t181 -72q54 -4 73 -24t7 -44t-54 -45t-110 -23q-16 36 -55 64t-111 31t-182 -29t-266 -118q-20 -18 -42 -28t-43 0t-38 47t-25 110t-5 190t21 289q2 26 5 47t7 42 l9 45q5 24 11 58q-64 -10 -113 -15t-71 -5q-76 0 -76 72z" />
<glyph unicode="&#xa5;" horiz-adv-x="1088" d="M110 460q0 8 11 30t17 28q108 6 195 19l163 25l2 124q-74 -6 -142 -7t-118 3q-76 0 -76 72q0 4 2 20t4 22q18 2 52 7t79 11l97 13q52 7 106 13l4 180q-20 36 -50 97t-62 133l-64 149l-58 145q-26 68 -44 120t-20 74q0 2 1 7t1 7q6 16 16 22t22 6t25 -3t23 -7 q36 -12 66 -63t61 -121l67 -148q36 -78 82 -142l127 295q49 109 77 164t40 66t15 4t0 -21t-1 -10q14 38 30 42t40 -6q28 -10 53 -27t15 -51q-42 -88 -80 -154l-72 -120l-63 -101q-29 -47 -53 -100t-44 -117t-34 -150l-1 -15q-1 -15 -2 -37t-1 -49v-53q70 10 124 15t80 9 q4 0 22 1t38 2t38 2t22 1q30 -40 13 -71t-65 -54t-120 -39t-152 -26v-120q50 4 98 5t100 -5q62 -8 81 -22t10 -30t-36 -31t-55 -23q-34 10 -85 10t-113 -6q0 -86 -1 -165t-2 -139t-4 -95t-7 -35l-120 -14l10 432l-131 -19q-65 -9 -117 -12t-89 4t-47 29z" />
<glyph unicode="&#xa8;" horiz-adv-x="698" d="M138 1642q32 34 54 46t58 12q60 0 60 -58q0 -12 -8 -29t-21 -32t-28 -23t-29 -2q-14 -10 -31 -5t-31 18t-21 32t-3 41zM432 1642q32 34 54 46t58 12q60 0 60 -58q0 -12 -8 -29t-21 -32t-28 -23t-29 -2q-14 -10 -31 -5t-31 18t-21 32t-3 41z" />
<glyph unicode="&#xa9;" horiz-adv-x="1104" d="M34 476q18 258 76 452t141 326t182 201t198 77t189 -46t156 -166q74 -138 91 -289t-12 -297t-98 -278t-166 -233t-217 -162t-252 -63q-82 0 -137 51t-89 125t-48 156t-14 146zM152 488q0 -54 5 -114t25 -109t61 -82t111 -35q84 -2 157 26t136 78t114 119t89 147 q-24 -24 -56 -52t-71 -51t-84 -38t-95 -15q-74 0 -121 40t-73 95t-35 113t-9 94l18 157q10 85 40 158t88 122t158 47q46 0 70 -28t35 -66t12 -78t1 -66q-44 -10 -73 11t-46 49t-22 53t-1 25q-48 0 -78 -46t-47 -108t-23 -124t-6 -94q-4 -34 -5 -74t10 -76t39 -62t82 -34 q82 24 123 59t67 72l51 72q25 35 75 61q26 4 36 -4t12 -18q18 216 -5 360t-73 224t-121 101t-148 -11t-153 -110t-136 -194t-97 -267t-37 -327z" />
<glyph unicode="&#xab;" horiz-adv-x="1484" d="M110 806l4 8q2 4 2 6l674 560q10 12 18 26t16 24t20 15t32 -3q30 -10 34 -36t-6 -54q-2 -2 -2 -8q0 -2 -2 -4q-74 -102 -146 -167t-150 -120l-163 -113q-85 -58 -183 -146l16 -36q2 -4 48 -34l109 -69l130 -79l109 -64q8 -6 34 -17t56 -22l56 -21q26 -10 38 -12 q6 -24 8 -40t-6 -36q-10 -26 -36 -46t-54 -28q-32 30 -98 70l-143 86l-157 94q-80 48 -142 95t-96 91t-20 80zM534 832l4 8q2 4 2 6l674 560q10 12 18 26t16 24t20 15t32 -3q30 -10 34 -36t-6 -54q-2 -2 -2 -8q0 -2 -2 -4q-74 -102 -146 -167t-150 -120l-163 -113 q-85 -58 -183 -146l16 -36q2 -4 48 -34l109 -69l130 -79l109 -64q8 -6 34 -17t56 -22l56 -21q26 -10 38 -12q6 -24 8 -40t-6 -36q-10 -26 -36 -46t-54 -28q-34 30 -99 70l-142 86l-157 94q-80 48 -142 95t-96 91t-20 80z" />
<glyph unicode="&#xad;" horiz-adv-x="910" d="M28 454q0 8 12 30t18 28q98 6 197 42t197 77t192 75t182 34q12 0 19 -11t10 -25t3 -27v-17q0 -8 -2 -21t-2 -15l-656 -198q-4 -2 -28 -3t-36 -1l-17 -1q-17 -1 -37 1t-36 9t-16 23z" />
<glyph unicode="&#xae;" horiz-adv-x="872" d="M34 476q18 258 73 450t134 319t174 192t190 69t182 -52t153 -168q86 -146 116 -299t11 -297t-81 -272t-159 -222t-226 -148t-279 -50q-82 0 -137 51t-89 125t-48 156t-14 146zM152 488q0 -54 5 -110t26 -102t61 -81t110 -47q80 -16 151 -2t131 50t109 90t85 122 q-38 4 -94 50q-18 6 -64 34l-98 61l-97 61q-45 28 -63 32v-294l-94 10l8 786l13 -5q13 -5 28 -10t27 -10t14 -5q4 0 15 -2t9 -12l-8 -58q18 4 44 18t60 28t76 24t90 6q102 -28 135 -67t21 -81t-57 -85t-100 -80t-107 -65l-78 -42q26 -12 69 -37l89 -52l87 -50q41 -23 61 -29 q38 -26 52 -48q46 110 64 232t6 235t-55 206t-118 142t-184 44t-253 -85l-61 -187q-31 -97 -56 -196t-42 -197t-17 -192zM420 772q6 4 46 24l92 46q52 26 104 57t79 59t19 51t-74 33q-28 2 -64 -3t-72 -16t-67 -28t-49 -39q-2 -16 -4 -39t-4 -49l-4 -51q-2 -25 -2 -45z" />
<glyph unicode="&#xb4;" horiz-adv-x="354" d="M44 1382q-6 34 23 77t80 93t103 96q36 0 50 -20t14 -46v-16q-4 -26 -27 -57t-54 -62t-65 -60l-58 -51q-60 12 -66 46z" />
<glyph unicode="&#xb8;" horiz-adv-x="734" d="M140 -100q10 98 25 146t32 59t32 -7t24 -53t10 -80t-11 -85q102 -72 178 -109t128 -73t78 -86t26 -146q-16 -46 -69 -75t-122 -46t-141 -23t-124 -4q-46 0 -53 27t-7 61q0 8 46 17t105 22t114 32t73 46t-17 63t-157 86q-98 0 -134 61t-36 167z" />
<glyph unicode="&#xbb;" horiz-adv-x="1424" d="M104 328q8 46 67 105t140 122l171 130q90 67 160 128t106 116t10 95l-622 336q-8 6 -19 27t-11 31q0 8 6 20t15 25t19 23t18 16l680 -392q54 -36 47 -97t-55 -135t-125 -154t-164 -155t-171 -140t-146 -108t-91 -58t-3 9q-24 0 -28 22t-4 34zM520 356q8 46 67 105 t140 122l171 130q90 67 160 128t106 116t10 95l-622 336q-8 6 -19 27t-11 31q0 8 6 20t15 25t19 23t18 16l680 -392q54 -36 47 -97t-55 -135t-125 -154t-164 -155t-171 -140t-146 -108t-91 -58t-3 9q-24 0 -28 22t-4 34z" />
<glyph unicode="&#xbf;" horiz-adv-x="1234" d="M1192.49 285.977q0 -24.8477 -42.7686 -50.6514t-109.173 -49.6963q-66.4033 -23.8926 -147.438 -45.873t-158.694 -37.2715q-77.6582 -15.291 -139.561 -24.8477q-61.9014 -9.55762 -93.415 -9.55762q-56.2744 0 -121.553 7.64551t-119.302 27.7148 q-54.0234 20.0703 -90.0391 57.3418t-36.0156 96.5244q0 108.948 64.1523 215.03q64.1533 106.081 155.318 200.694q91.1641 94.6133 190.207 175.847t168.823 144.309q31.5137 13.3799 39.3916 40.1387q7.87891 26.7598 -1.125 55.4307t-36.0156 55.4297t-67.5293 40.1387 t-93.416 8.60156q-52.8975 -4.77832 -115.925 -37.2725l-47.2705 82.1895q51.7725 34.4053 122.678 45.873q70.9062 11.4688 133.934 11.4688q47.2705 0 93.416 -12.4238q46.1445 -12.4238 83.2852 -36.3164q37.1416 -23.8926 59.6514 -57.3418t22.5098 -75.499 q0 -86.0117 -48.3955 -155.777q-48.3965 -69.7646 -119.303 -132.841q-70.9053 -63.0752 -155.316 -122.328q-84.4121 -59.252 -155.318 -123.283q-70.9053 -64.0312 -119.301 -134.752q-48.3965 -70.7217 -48.3965 -156.733q0 -49.6963 30.3887 -73.5879 q30.3877 -23.8926 75.4072 -32.4932q45.0195 -8.60156 97.917 -7.64551q52.8984 0.955078 95.667 0.955078q81.0352 0 153.066 26.7598q72.0312 26.7588 138.435 58.2969q66.4043 31.5381 131.683 57.3408q65.2783 25.8037 132.808 25.8037q31.5137 0 54.0234 -6.68945 q22.5098 -6.69043 22.5098 -50.6514zM773.805 1971.81q0 -36.3164 -15.7568 -46.8281q-15.7568 -10.5127 -45.0195 -10.5127q-42.7686 0 -72.0312 25.8037q-29.2627 25.8027 -29.2627 60.208q0 30.582 25.8867 42.0498q25.8857 11.4688 59.6504 11.4688 q13.5059 0 27.0117 -9.55664t24.7607 -22.9365t18.0078 -26.7598t6.75293 -22.9365z" />
<glyph unicode="&#xc1;" horiz-adv-x="888" d="M58 58q6 32 11 80t12 128l18 198l28 287l41 397q24 228 60 530q4 22 23 26t33 4q24 0 40 -17t28 -40t23 -47t25 -40q22 -50 46 -117l50 -142l53 -152l53 -149l50 -133q24 -61 44 -103q24 4 69 20t96 32t100 25q26 5 47 5q19 0 35 -4q33 -8 43 -39q3 -9 3 -20 q0 -29 -19 -77q-16 0 -30 5t-27 11t-27 11t-32 5q-12 0 -51 -12t-83 -27t-77 -29t-33 -20l152 -602l-58 -86q-38 66 -63 149t-47 166t-46 156t-60 121q-46 -22 -110 -38t-124 -39t-104 -62t-52 -105q-4 -28 -8 -72l-8 -84q-6 -48 -10 -100h-114zM250 558q42 0 89 11t92 30 t82 47t57 64l-39 160q-21 84 -46 169t-54 168t-61 159q-4 4 -17 11q-4 2 -8 2q-12 0 -31 -13l-4 -37q-4 -37 -8 -87t-10 -103t-8 -87q-10 -126 -22 -247t-12 -247zM150 1848q-6 34 23 77t80 93t103 96q36 0 50 -20t14 -46v-16q-4 -26 -27 -57t-54 -62t-65 -60l-58 -51 q-60 12 -66 46z" />
<glyph unicode="&#xc9;" horiz-adv-x="1080" d="M74 1536q0 10 8 26t20 30t27 23t31 7q26 -6 43 -33t26 -59t12 -63t3 -45l151 77q83 41 171 76t175 58t165 23q0 -20 -7 -36t-29 -26l-626 -314v-34v-52q2 -24 6 -85l8 -128l8 -128q4 -61 6 -85l456 256l12 14q12 14 29 25t36 12t37 -23q0 -40 -40 -78t-100 -76t-130 -73 t-130 -69t-100 -67t-40 -63v-428q11 -4 25 -4q24 0 57 13q52 21 116 59t133 88l135 95l122 80q56 35 94 43q22 0 40 -9t18 -37q0 -26 -30 -42q-78 -46 -179 -116l-206 -140q-105 -70 -206 -127t-175 -75q-28 0 -46 5t-40 27q0 180 2 353q1 58 1 115q0 115 -3 229 q-4 171 -17 344t-41 351q0 4 -5 17l-10 27l-9 26q-4 12 -4 16zM400 1718q-6 34 23 77t80 93t103 96q36 0 50 -20t14 -46v-16q-4 -26 -27 -57t-54 -62t-65 -60l-58 -51q-60 12 -66 46z" />
<glyph unicode="&#xcd;" horiz-adv-x="350" d="M116 1660q0 18 12 26t29 9h12q12 0 24 -1q19 -2 31 -2q12 -28 20 -107t15 -191t11 -247t7 -274t4 -273t2 -244t1 -186v-100q-2 -46 -19 -54q-5 -2 -14 -2q-21 0 -61 12q-8 2 -12 67t-7 171t-5 242l-4 281q-2 145 -5 289t-8 263t-13 205t-20 116zM78 1858q-6 34 23 77 t80 93t103 96q36 0 50 -20t14 -46v-16q-4 -26 -27 -57t-54 -62t-65 -60l-58 -51q-60 12 -66 46z" />
<glyph unicode="&#xd1;" horiz-adv-x="1232" d="M68 1366v108q28 0 61 -18t64 -43t58 -54t43 -51l654 -882q8 38 13 140q4 85 4 189v43q-1 130 -6 273t-15 266t-23 209t-31 104q0 32 12 61t48 29q34 0 56 -40t34 -90t17 -98t5 -62q2 -40 4 -122t5 -185t6 -218t6 -218t5 -186t4 -123q0 -28 10 -53l20 -49q10 -24 19 -49 t9 -51q0 -44 -33 -66t-73 -22q-22 0 -39 6t-27 20t-11 37t9 57l-75 95l-115 147l-135 171l-135 170l-116 146l-76 95q-4 6 -16 18l-26 26l-26 26q-12 12 -18 16q-5 -59 -5 -118q0 -71 7 -141q12 -129 31 -258l37 -257q18 -128 18 -258q0 -34 -6 -62t-54 -44q-44 16 -59 59 q-7 21 -7 41q0 21 8 42zM96 1900q4 68 34 115t74 74t96 38t100 6t88 -23t58 -48q30 -102 60 -137t59 -30t56 39t50 71t43 64t36 19q32 10 59 11t39 -39q12 -34 -9 -75t-59 -82t-84 -76t-86 -55q-34 -8 -66 -4t-60 16t-47 30t-25 38q-28 16 -41 47t-27 61t-34 51t-62 19 q-46 0 -66 -22t-34 -53l-28 -63q-14 -32 -44 -54q-22 -8 -36 -5t-22 12t-12 24t-10 31z" />
<glyph unicode="&#xd3;" horiz-adv-x="872" d="M34 476q26 386 111 630t197 348q84 78 174 78q29 0 59 -8q121 -34 219 -204q32 -112 42 -249q4 -57 4 -115q0 -81 -8 -163q-14 -141 -51 -277t-101 -245t-153 -183t-205 -90q-82 0 -137 51t-89 125t-48 156t-14 146zM152 488q0 -54 5 -114t25 -110t61 -83t111 -33 q78 0 142 72t111 185t75 251t33 270q1 28 1 54q0 101 -15 189q-19 111 -66 168q-39 48 -99 48q-12 0 -24 -2q-76 -11 -184 -123l-61 -187q-31 -97 -56 -196t-42 -197t-17 -192zM280 1666q-6 34 23 77t80 93t103 96q36 0 50 -20t14 -46v-16q-4 -26 -27 -57t-54 -62t-65 -60 l-58 -51q-60 12 -66 46z" />
<glyph unicode="&#xda;" d="M70 1288q-2 11 -2 19q0 10 3 17q5 12 16 17t25 6t26 1h18q12 0 24 -2t21 -9t9 -21v-948q0 -38 12 -79t34 -75t55 -56t75 -22q86 6 147 90t105 210t73 275t51 287l39 245q17 107 37 149q28 24 48 24q10 0 19 -6q25 -18 37 -57t14 -85v-21q0 -30 -4 -45q0 -148 -15 -295 t-15 -297q0 -96 9 -192t20 -191t20 -190t9 -189q0 -16 -2 -35t-10 -35t-21 -27t-37 -11q-2 0 -7 1t-9 1l-86 854q-22 -82 -58 -181t-91 -186t-130 -146t-175 -59q-78 0 -126 33t-75 87t-39 120t-16 132q-2 22 -4 90t-5 160t-6 196t-6 196t-5 160t-2 90zM424 1382 q-6 34 23 77t80 93t103 96q36 0 50 -20t14 -46v-16q-4 -26 -27 -57t-54 -62t-65 -60l-58 -51q-60 12 -66 46z" />
<glyph unicode="&#xdc;" d="M70 1288q-2 11 -2 19q0 10 3 17q5 12 16 17t25 6t26 1h18q12 0 24 -2t21 -9t9 -21v-948q0 -38 12 -79t34 -75t55 -56t75 -22q86 6 147 90t105 210t73 275t51 287l39 245q17 107 37 149q28 24 48 24q10 0 19 -6q25 -18 37 -57t14 -85v-21q0 -30 -4 -45q0 -148 -15 -295 t-15 -297q0 -96 9 -192t20 -191t20 -190t9 -189q0 -16 -2 -35t-10 -35t-21 -27t-37 -11q-2 0 -7 1t-9 1l-86 854q-22 -82 -58 -181t-91 -186t-130 -146t-175 -59q-78 0 -126 33t-75 87t-39 120t-16 132q-2 22 -4 90t-5 160t-6 196t-6 196t-5 160t-2 90zM284 1642 q32 34 54 46t58 12q60 0 60 -58q0 -12 -8 -29t-21 -32t-28 -23t-29 -2q-14 -10 -31 -5t-31 18t-21 32t-3 41zM578 1642q32 34 54 46t58 12q60 0 60 -58q0 -12 -8 -29t-21 -32t-28 -23t-29 -2q-14 -10 -31 -5t-31 18t-21 32t-3 41z" />
<glyph unicode="&#xe1;" horiz-adv-x="834" d="M2 278q0 48 22 137t60 195t90 215t112 198t125 146t129 57q21 4 40 4q66 0 101 -44q28 -35 28 -99q0 -40 -11 -91q0 -148 12 -252t27 -200t27 -200t12 -250q0 -28 -6 -47t-54 -19q-6 0 -16 12t-10 18q-12 58 -20 139l-17 164q-9 83 -21 157t-36 120q-114 -232 -201 -364 t-152 -189q-62 -54 -105 -54h-5q-45 3 -73 41t-41 96t-17 110zM112 292q0 -80 24 -90q5 -2 11 -2q21 0 49 27q36 35 81 102t89 142t82 147l62 116q18 46 30 86t19 77t9 75t2 80q-14 18 -33 18q-16 0 -35 -13q-42 -29 -89 -95t-96 -159t-91 -189t-73 -182t-41 -140zM330 1382 q-6 34 23 77t80 93t103 96q36 0 50 -20t14 -46v-16q-4 -26 -27 -57t-54 -62t-65 -60l-58 -51q-60 12 -66 46z" />
<glyph unicode="&#xe9;" horiz-adv-x="1052" d="M-20 522q0 16 7 23t23 19q48 40 82 104t63 136t61 144t75 130t105 93q59 33 142 33h10q38 0 85 -17t87 -48t67 -73t27 -92q10 -18 -22 -51t-88 -72t-125 -80l-134 -77l-114 -63q-49 -27 -65 -39q-10 -24 -17 -52t-10 -54t-4 -47t-1 -33q0 -42 -4 -93q-1 -17 -1 -33 q0 -33 5 -63q8 -45 37 -75t97 -30q74 0 139 36t120 90t101 116t82 116t65 90t49 36q22 0 48 -8t26 -36q0 -40 -32 -96t-85 -118t-120 -123t-136 -109t-136 -78t-117 -30q-100 0 -151 49t-73 122t-23 157t-3 154q-10 -2 -33 -6t-47 -2t-43 13t-19 37zM288 758q34 0 97 26 t126 63t109 80t46 79q0 20 -15 34t-36 23t-44 13t-39 4q-38 0 -81 -37t-79 -89t-60 -106t-24 -90zM438 1382q-6 34 23 77t80 93t103 96q36 0 50 -20t14 -46v-16q-4 -26 -27 -57t-54 -62t-65 -60l-58 -51q-60 12 -66 46z" />
<glyph unicode="&#xed;" horiz-adv-x="302" d="M64 1650q-6 34 23 77t80 93t103 96q36 0 50 -20t14 -46v-16q-4 -26 -27 -57t-54 -62t-65 -60l-58 -51q-60 12 -66 46zM74 994q-2 -158 3 -321t11 -324t6 -305q-4 -38 13 -50t45 -12q24 0 41 12t13 50q-4 128 -4 283t1 314l2 314q1 155 1 285q0 34 -19 44t-49 10 q-6 0 -23 -1t-21 -3q-18 -138 -20 -296z" />
<glyph unicode="&#xf1;" horiz-adv-x="1100" d="M66 1256q0 54 58 54h18q8 0 16 -18t18 -66t23 -145t30 -252t39 -389q48 152 75 294t69 259t118 205t222 132q80 -14 129 -98t77 -206t39 -265t14 -274t3 -235t4 -148q-6 -18 -20 -31t-30 -19t-32 -2t-30 24q0 24 -4 100t-11 177t-14 215l-13 215q-6 101 -11 177t-7 100 q-46 82 -92 93q-10 2 -20 2q-36 0 -71 -31q-45 -40 -87 -122t-80 -185t-71 -217t-58 -219t-41 -191t-22 -132q-6 -16 -27 -30t-45 -21q-17 -5 -33 -5q-7 0 -14 1q-23 3 -33 25q-26 300 -45 602zM160 1668q4 68 34 115t74 74t96 38t100 6t88 -23t58 -48q30 -102 60 -137 t59 -30t56 39t50 71t43 64t36 19q32 10 59 11t39 -39q12 -34 -9 -75t-59 -82t-84 -76t-86 -55q-34 -8 -66 -4t-60 16t-47 30t-25 38q-28 16 -41 47t-27 61t-34 51t-62 19q-46 0 -66 -22t-34 -53l-28 -63q-14 -32 -44 -54q-22 -8 -36 -5t-22 12t-12 24t-10 31z" />
<glyph unicode="&#xf3;" horiz-adv-x="606" d="M40 503q0 97 12 197t36 208l54 232q0 24 14 45t36 36t46 24t46 9q50 0 90 -31t72 -76t55 -95l39 -86q18 -78 26 -176q4 -52 4 -106q0 -47 -3 -95q-7 -103 -31 -202t-69 -181t-115 -137t-166 -69q-50 0 -77 35t-39 84t-13 101t-1 84q-16 102 -16 199zM167 516 q1 -102 3 -204q0 -24 1 -44t4 -38t8 -39t15 -49h14q52 0 90 36t65 92t44 126t27 138t14 127t4 95v44q0 30 -2 66t-8 75t-17 71t-29 52t-46 20q-21 7 -39 7q-25 0 -45 -13q-34 -22 -55 -74t-32 -128t-14 -167q-2 -68 -2 -143v-50zM216 1382q-6 34 23 77t80 93t103 96 q36 0 50 -20t14 -46v-16q-4 -26 -27 -57t-54 -62t-65 -60l-58 -51q-60 12 -66 46z" />
<glyph unicode="&#xfa;" horiz-adv-x="882" d="M74 1074q8 22 23 26t35 4q16 0 31 -4t25 -26q0 -26 2 -83t6 -129l8 -151l8 -151l7 -128q3 -56 5 -82q2 -16 6 -52t11 -75t20 -70t33 -33q32 0 67 29t68 73t62 98t52 104t36 90t15 58q4 36 8 107t7 151t4 151t1 107l122 -6q1 -51 1 -100q0 -121 -4 -225q-3 -91 -3 -175 q0 -50 1 -98q3 -128 20 -248t65 -250q-6 -6 -27 -18t-29 -12q-56 0 -75 36t-24 86t-9 101t-30 79q-8 -26 -43 -72t-81 -92t-96 -80t-88 -34q-72 0 -117 67t-70 171t-34 232t-11 250t-2 222t-6 152zM354 1382q-6 34 23 77t80 93t103 96q36 0 50 -20t14 -46v-16 q-4 -26 -27 -57t-54 -62t-65 -60l-58 -51q-60 12 -66 46z" />
<glyph unicode="&#xfc;" horiz-adv-x="882" d="M74 1074q8 22 23 26t35 4q16 0 31 -4t25 -26q0 -26 2 -83t6 -129l8 -151l8 -151l7 -128q3 -56 5 -82q2 -16 6 -52t11 -75t20 -70t33 -33q32 0 67 29t68 73t62 98t52 104t36 90t15 58q4 36 8 107t7 151t4 151t1 107l122 -6q1 -51 1 -100q0 -121 -4 -225q-3 -91 -3 -175 q0 -50 1 -98q3 -128 20 -248t65 -250q-6 -6 -27 -18t-29 -12q-56 0 -75 36t-24 86t-9 101t-30 79q-8 -26 -43 -72t-81 -92t-96 -80t-88 -34q-72 0 -117 67t-70 171t-34 232t-11 250t-2 222t-6 152zM214 1642q32 34 54 46t58 12q60 0 60 -58q0 -12 -8 -29t-21 -32t-28 -23 t-29 -2q-14 -10 -31 -5t-31 18t-21 32t-3 41zM508 1642q32 34 54 46t58 12q60 0 60 -58q0 -12 -8 -29t-21 -32t-28 -23t-29 -2q-14 -10 -31 -5t-31 18t-21 32t-3 41z" />
<glyph unicode="&#x2c6;" horiz-adv-x="890" d="M62 1542q0 4 1 10t1 8l282 526q4 10 26 23t46 13q2 0 6 -1t6 -1l364 -424q44 -10 52 -23t8 -35q0 -10 -4 -24t-13 -26t-23 -21t-36 -9h-8q-4 0 -4 2l-310 390q-12 18 -42 18h-12l-252 -442q-4 -4 -15 -10t-15 -6q-40 0 -49 8t-9 24z" />
<glyph unicode="&#x2da;" horiz-adv-x="606" d="M43 1390q13 40 52 73t99 53t134 20q50 0 84 -7t58 -19t41 -29t33 -37q24 -70 25 -127t-33 -96t-111 -59t-209 -14q-50 0 -83 18t-52 44t-26 53t-7 45q-18 42 -5 82zM162 1312q0 -24 23 -39t49 -37q58 -6 91 -7t53 6t34 27l38 56q4 38 -16 64t-53 39t-72 13t-72 -13 t-55 -40t-20 -69z" />
<glyph unicode="&#x2dc;" horiz-adv-x="1044" d="M84 1392q4 68 34 115t74 74t96 38t100 6t88 -23t58 -48q30 -102 60 -137t59 -30t56 39t50 71t43 64t36 19q32 10 59 11t39 -39q12 -34 -9 -75t-59 -82t-84 -76t-86 -55q-34 -8 -66 -4t-60 16t-47 30t-25 38q-28 16 -41 47t-27 61t-34 51t-62 19q-46 0 -66 -22t-34 -53 l-28 -63q-14 -32 -44 -54q-22 -8 -36 -5t-22 12t-12 24t-10 31z" />
<glyph unicode="&#x2000;" horiz-adv-x="1336" />
<glyph unicode="&#x2001;" horiz-adv-x="2674" />
<glyph unicode="&#x2002;" horiz-adv-x="1336" />
<glyph unicode="&#x2003;" horiz-adv-x="2674" />
<glyph unicode="&#x2004;" horiz-adv-x="890" />
<glyph unicode="&#x2005;" horiz-adv-x="668" />
<glyph unicode="&#x2006;" horiz-adv-x="444" />
<glyph unicode="&#x2007;" horiz-adv-x="444" />
<glyph unicode="&#x2008;" horiz-adv-x="334" />
<glyph unicode="&#x2009;" horiz-adv-x="534" />
<glyph unicode="&#x200a;" horiz-adv-x="148" />
<glyph unicode="&#x2010;" horiz-adv-x="910" d="M28 454q0 8 12 30t18 28q98 6 197 42t197 77t192 75t182 34q12 0 19 -11t10 -25t3 -27v-17q0 -8 -2 -21t-2 -15l-656 -198q-4 -2 -28 -3t-36 -1l-17 -1q-17 -1 -37 1t-36 9t-16 23z" />
<glyph unicode="&#x2011;" horiz-adv-x="910" d="M28 454q0 8 12 30t18 28q98 6 197 42t197 77t192 75t182 34q12 0 19 -11t10 -25t3 -27v-17q0 -8 -2 -21t-2 -15l-656 -198q-4 -2 -28 -3t-36 -1l-17 -1q-17 -1 -37 1t-36 9t-16 23z" />
<glyph unicode="&#x2012;" horiz-adv-x="910" d="M28 454q0 8 12 30t18 28q98 6 197 42t197 77t192 75t182 34q12 0 19 -11t10 -25t3 -27v-17q0 -8 -2 -21t-2 -15l-656 -198q-4 -2 -28 -3t-36 -1l-17 -1q-17 -1 -37 1t-36 9t-16 23z" />
<glyph unicode="&#x2013;" horiz-adv-x="910" d="M28 454q0 8 12 30t18 28q98 6 197 42t197 77t192 75t182 34q12 0 19 -11t10 -25t3 -27v-17q0 -8 -2 -21t-2 -15l-656 -198q-4 -2 -28 -3t-36 -1l-17 -1q-17 -1 -37 1t-36 9t-16 23z" />
<glyph unicode="&#x2014;" horiz-adv-x="1252" d="M28 454q0 8 12 30t18 28q66 4 152 19t181 36l195 44q100 23 194 42t175 32t141 13q12 0 19 -11t10 -25t3 -27v-17q0 -8 -2 -21t-2 -15l-926 -156q-4 -2 -28 -3t-36 -1l-17 -1q-17 -1 -37 1t-36 9t-16 23z" />
<glyph unicode="&#x2018;" horiz-adv-x="354" d="M74 1338v16q0 28 12 50t44 22q34 0 54 -28t30 -71t12 -94t1 -97t-4 -81t-3 -45v-49q0 -35 -1 -73t-2 -72t-1 -48q-34 4 -57 28t-27 58q-2 18 -7 56l-11 85q-6 47 -12 100l-12 101q-6 48 -10 86z" />
<glyph unicode="&#x2019;" horiz-adv-x="354" d="M74 1338v16q0 28 12 50t44 22q34 0 54 -28t30 -71t12 -94t1 -97t-4 -81t-3 -45v-49q0 -35 -1 -73t-2 -72t-1 -48q-34 4 -57 28t-27 58q-2 18 -7 56l-11 85q-6 47 -12 100l-12 101q-6 48 -10 86z" />
<glyph unicode="&#x201a;" horiz-adv-x="354" d="M96 544v16q0 28 12 50t44 22q34 0 54 -28t30 -71t12 -94t1 -97t-4 -81t-3 -45v-49q0 -35 -1 -73t-2 -72t-1 -48q-34 4 -57 28t-27 58q-2 18 -7 56l-11 85q-6 47 -12 100l-12 101q-6 48 -10 86z" />
<glyph unicode="&#x201c;" horiz-adv-x="484" d="M58 1766q8 22 24 26t34 4q26 0 42 -10t14 -50l19 -249q9 -117 9 -243q0 -14 1 -32t-2 -35t-13 -29t-30 -12q-16 0 -27 37t-19 96t-15 131t-12 142t-11 130t-14 94zM314 1280v486q18 6 34 0t28 -16t18 -22t6 -20v-502q-34 0 -60 18t-26 56z" />
<glyph unicode="&#x201d;" horiz-adv-x="484" d="M58 1766q8 22 24 26t34 4q26 0 42 -10t14 -50l19 -249q9 -117 9 -243q0 -14 1 -32t-2 -35t-13 -29t-30 -12q-16 0 -27 37t-19 96t-15 131t-12 142t-11 130t-14 94zM314 1280v486q18 6 34 0t28 -16t18 -22t6 -20v-502q-34 0 -60 18t-26 56z" />
<glyph unicode="&#x201e;" horiz-adv-x="484" d="M64 616q8 22 24 26t34 4q26 0 42 -10t14 -50l19 -249q9 -117 9 -243q0 -14 1 -32t-2 -35t-13 -29t-30 -12q-16 0 -27 37t-19 96t-15 131t-12 142t-11 130t-14 94zM320 130v486q18 6 34 0t28 -16t18 -22t6 -20v-502q-34 0 -60 18t-26 56z" />
<glyph unicode="&#x2022;" horiz-adv-x="432" d="M88 706q26 36 47 59t42 37t44 20t53 6q98 0 98 -122q0 -22 -13 -57t-34 -66t-46 -48t-49 -3q-24 -20 -52 -12t-51 35t-35 67t-4 84z" />
<glyph unicode="&#x2026;" horiz-adv-x="882" d="M58 86q32 34 54 46t58 12q60 0 60 -58q0 -12 -8 -29t-21 -32t-28 -23t-29 -2q-14 -10 -31 -5t-31 18t-21 32t-3 41zM352 86q32 34 54 46t58 12q60 0 60 -58q0 -12 -8 -29t-21 -32t-28 -23t-29 -2q-14 -10 -31 -5t-31 18t-21 32t-3 41zM646 86q32 34 54 46t58 12 q60 0 60 -58q0 -12 -8 -29t-21 -32t-28 -23t-29 -2q-14 -10 -31 -5t-31 18t-21 32t-3 41z" />
<glyph unicode="&#x202f;" horiz-adv-x="534" />
<glyph unicode="&#x2039;" horiz-adv-x="932" d="M110 806l4 8q2 4 2 6l674 560q10 12 18 26t16 24t20 15t32 -3q30 -10 34 -36t-6 -54q-2 -2 -2 -8q0 -2 -2 -4q-74 -102 -146 -167t-150 -120l-163 -113q-85 -58 -183 -146l16 -36q2 -4 48 -34l109 -69l130 -79l109 -64q8 -6 34 -17t56 -22l56 -21q26 -10 38 -12 q6 -24 8 -40t-6 -36q-10 -26 -36 -46t-54 -28q-32 30 -98 70l-143 86l-157 94q-80 48 -142 95t-96 91t-20 80z" />
<glyph unicode="&#x203a;" d="M104 328q8 46 67 105t140 122l171 130q90 67 160 128t106 116t10 95l-622 336q-8 6 -19 27t-11 31q0 8 6 20t15 25t19 23t18 16l680 -392q54 -36 47 -97t-55 -135t-125 -154t-164 -155t-171 -140t-146 -108t-91 -58t-3 9q-24 0 -28 22t-4 34z" />
<glyph unicode="&#x205f;" horiz-adv-x="668" />
<glyph unicode="&#x20ac;" horiz-adv-x="1342" d="M20 434q0 8 11 30t17 28q64 4 126 17t122 29q4 54 14 117l22 133q-64 -10 -113 -15t-71 -5q-76 0 -76 72q0 4 2 20t4 22q34 4 111 15t171 23q32 134 77 266t105 237t135 170t165 65q54 0 93 -20t65 -54t38 -78t12 -94q-40 0 -64 21t-44 45t-42 45t-56 21q-64 0 -119 -54 t-100 -140t-82 -196t-65 -220l154 19l100 13q4 0 22 1t38 2t38 2t22 1q0 -26 -36 -50t-93 -45t-129 -38t-144 -31q-28 -136 -40 -234l255 79q127 39 263 39q0 -62 -51 -94t-118 -47t-133 -20t-94 -13q-16 -4 -52 -15l-78 -25v-22q0 -64 6 -126t28 -110t65 -78t119 -30 q90 0 178 20t163 58t131 95t80 129q4 2 20 3t20 1q26 0 50 -6t24 -40q-14 -72 -63 -133t-116 -109t-146 -82t-155 -52t-141 -17t-105 21q-72 0 -124 41t-85 101t-48 129t-15 127v44l-110 -39q-50 -17 -72 -27q-24 10 -44 20q-16 10 -29 19t-13 19z" />
<glyph unicode="&#x2122;" horiz-adv-x="2910" d="M26 1352q0 22 19 45t41 25l596 86q2 10 7 29t13 38t21 33t31 14q26 0 42 -13t27 -30l20 -30q9 -13 21 -13h18q26 4 93 11l150 15l168 17l145 15l-8 42l-8 42q-2 40 14 50t40 10q54 0 97 -26t79 -65t63 -85l49 -84q18 -28 50 -92l72 -144l83 -168l83 -167l73 -140 q33 -61 51 -87q8 0 15 7t19 38t34 95l59 178l93 287l136 421q4 12 29 21t43 9q22 0 29 -14t11 -44q20 -188 33 -394t33 -416t50 -417t82 -393l-152 -60l-130 1480q-8 4 -25 -50l-43 -140l-57 -194q-31 -108 -66 -214t-71 -198t-71 -146t-66 -59t-57 63l-49 99l-75 152 l-88 178l-88 177l-76 150l-50 98q-26 48 -47 78t-67 30q0 -156 18 -342t39 -377t39 -377t18 -344q10 -20 -5 -38t-40 -26t-55 -1t-50 37q-18 176 -20 358l-4 367q-2 185 -11 370t-37 369q-70 -22 -159 -33t-176 -18t-159 -12t-108 -13q-10 -158 7 -329t42 -344l48 -344 q23 -171 23 -327q8 -32 7 -49t-12 -24t-33 -7t-54 2q-22 80 -39 188t-30 231t-25 254l-23 260q-11 129 -25 247t-30 214h-40q-72 0 -144 -14t-143 -30t-143 -30t-144 -14q-22 0 -46 6t-24 40z" />
<glyph unicode="&#xe000;" horiz-adv-x="1375" d="M0 1375h1375v-1375h-1375v1375z" />
</font>
</defs>
</svg>
