<?xml version="1.0" standalone="no"?>
<!DOCTYPE svg PUBLIC "-//W3C//DTD SVG 1.1//EN" "http://www.w3.org/Graphics/SVG/1.1/DTD/svg11.dtd" >
<svg>
<metadata>
Created by FontForge 20090914 at Fri Sep 30 21:43:11 2011
 By www-data
Copyright (c) 2011 by vernon adams. All rights reserved.
</metadata>
<defs>
<font id="Kameron" horiz-adv-x="853" >
  <font-face 
    font-family="Kameron"
    font-weight="400"
    font-stretch="normal"
    units-per-em="2048"
    panose-1="2 0 5 3 4 0 0 2 0 3"
    ascent="1638"
    descent="-410"
    x-height="894"
    cap-height="1290"
    bbox="-276 -608.004 2198 1823"
    underline-thickness="102"
    underline-position="-103"
    unicode-range="U+0020-U+FB02"
  />
<missing-glyph horiz-adv-x="1126" 
 />
    <glyph glyph-name=".notdef" horiz-adv-x="1126" 
 />
    <glyph glyph-name="space" unicode=" " horiz-adv-x="534" 
 />
    <glyph glyph-name="exclam" unicode="!" horiz-adv-x="596" 
d="M288 172c18.667 0 34.832 -2.5 48.499 -7.5s24.834 -11.667 33.501 -20s15 -17.833 19 -28.5s6 -22 6 -34c0 -24 -8.16699 -45.167 -24.5 -63.5s-43.833 -27.5 -82.5 -27.5s-66.334 8.83301 -83.001 26.5s-25 39.167 -25 64.5c0 12 2 23.333 6 34s10.333 20.167 19 28.5
s19.834 15 33.501 20s30.167 7.5 49.5 7.5zM378.998 1290c0 -1.33301 0.168945 -8.5 0.501953 -21.5s0.5 -27.5 0.5 -43.5v-44v-22c0 -3.33301 -0.666992 -16.833 -2 -40.5s-3.16602 -53.667 -5.49902 -90s-4.83301 -77.5 -7.5 -123.5s-5.66699 -92.667 -9 -140l-9.5 -140
c-3 -46 -5.83301 -87.167 -8.5 -123.5l-6.5 -90c-1.66699 -23.667 -2.83398 -37.167 -3.50098 -40.5h-71c-0.666992 3.33301 -1.83398 16.833 -3.50098 40.5l-6.5 90c-2.66699 36.333 -5.33398 77.333 -8.00098 123l-8.5 140l-9 140.5c-3 46 -5.5 87.167 -7.5 123.5l-5 90.5
c-1.33301 24 -2 37.667 -2 41v21v44c0 16 0.166992 30.5 0.5 43.5s0.5 20.167 0.5 21.5h171z" />
    <glyph glyph-name="quotedbl" unicode="&#x22;" horiz-adv-x="628" 
d="M430 880c-4.66699 34.667 -9.99805 70.167 -15.998 106.5l-17.5 108.5c-5.66699 36 -10.334 71.5 -14.001 106.5s-5.5 68.833 -5.5 101.5c0 16 2.5 30.167 7.5 42.5s11.667 22.5 20 30.5s17.666 14.167 27.999 18.5s20.833 6.5 31.5 6.5c20 0 38.167 -7.66699 54.5 -23
s24.5 -39 24.5 -71c0 -63.333 -5.33301 -129.5 -16 -198.5l-36 -228.5h-61zM173.002 880c-4.66699 34.667 -9.99805 70.167 -15.998 106.5l-17.5 108.5c-5.66699 36 -10.334 71.5 -14.001 106.5s-5.5 68.833 -5.5 101.5c0 16 2.5 30.167 7.5 42.5s11.667 22.5 20 30.5
s17.666 14.167 27.999 18.5s20.833 6.5 31.5 6.5c20 0 38.167 -7.66699 54.5 -23s24.5 -39 24.5 -71c0 -63.333 -5.33301 -129.5 -16 -198.5l-36 -228.5h-61z" />
    <glyph glyph-name="numbersign" unicode="#" horiz-adv-x="1471" 
d="M654 980h329l126 427h127l-124 -427h232l-21 -116h-246l-87 -320h294l-23 -118h-305l-127 -424h-129l126 424h-327l-126 -424h-128l127 424h-244l22 118h253l88 320h-304l23 116h316l124 427h130zM620 864l-88 -320h330l88 320h-330z" />
    <glyph glyph-name="dollar" unicode="$" horiz-adv-x="1110" 
d="M609 1408v-129.996c66.667 -6 129.167 -18.167 187.5 -36.5s113.833 -43.5 166.5 -75.5l1 -209h-116c0 36 -4.16699 67.667 -12.5 95s-22 50.166 -41 68.499s-43.667 32.666 -74 42.999s-67.5 17.166 -111.5 20.499v-464c74 -18 136.833 -39 188.5 -63
s93.667 -51.333 126 -82s55.833 -64.834 70.5 -102.501s22 -79.167 22 -124.5c0 -50 -9.16699 -96 -27.5 -138s-45 -78.667 -80 -110s-77.667 -56.5 -128 -75.5s-107.833 -30.833 -172.5 -35.5v-173h-94v173c-174.667 7.33301 -308 47.333 -400 120v222h117
c2.66699 -42 9.66699 -78.167 21 -108.5s28.166 -55.666 50.499 -75.999s50.833 -35.833 85.5 -46.5s76.667 -17 126 -19v523c-124 29.333 -217.667 73.666 -281 132.999s-95 131.666 -95 216.999c0 46 8.5 88 25.5 126s41.833 70.833 74.5 98.5
s72.334 49.834 119.001 66.501s99.667 27 159 31v132h93zM516 1186c-72.667 -7.33301 -129.5 -29.5 -170.5 -66.5s-61.5 -85.833 -61.5 -146.5c0 -56 18.5 -101.833 55.5 -137.5s95.833 -65.5 176.5 -89.5v440zM608 82.0039c40 4 76.1699 12.332 108.503 24.999
s59.666 29.5 81.999 50.5s39.666 46 51.999 75s18.5 61.5 18.5 97.5c0 59.333 -20.833 110.333 -62.5 153s-107.834 74.334 -198.501 95.001v-496z" />
    <glyph glyph-name="percent" unicode="%" horiz-adv-x="1715" 
d="M382 1315c47.333 0 89.501 -8 126.501 -24s68.167 -39 93.5 -69s44.5 -66.667 57.5 -110s19.5 -92.666 19.5 -147.999c0 -114.667 -26 -202.334 -78 -263.001s-126.667 -91 -224 -91c-95.333 0 -168.833 30.5 -220.5 91.5s-77.5 148.167 -77.5 261.5
c0 112 26.167 198.667 78.5 260s127.166 92 224.499 92zM1362 1304l-900 -1318h-109l900 1318h109zM377.001 1243c-111.333 0 -167 -94.334 -167 -283.001c0 -92 14.167 -161.333 42.5 -208s70.833 -70 127.5 -70c56 0 98.667 23.333 128 70s44 116.334 44 209.001
c0 96 -14.333 167 -43 213s-72.667 69 -132 69zM1339 684.999c96 0 169.331 -30.667 219.998 -92s76 -150 76 -266c0 -110 -26.167 -195.333 -78.5 -256s-127.166 -91 -224.499 -91c-95.333 0 -168.666 30.333 -219.999 91s-77 147.667 -77 261
c0 112.667 26.167 199.667 78.5 261s127.5 92 225.5 92zM1333 612.999c-56.667 0 -99.001 -23.834 -127.001 -71.501s-42 -118.5 -42 -212.5c0 -91.333 14.333 -160.166 43 -206.499s71.334 -69.5 128.001 -69.5s99.667 23 129 69s44 115 44 207
c0 96.667 -14.333 168.167 -43 214.5s-72.667 69.5 -132 69.5z" />
    <glyph glyph-name="ampersand" unicode="&#x26;" horiz-adv-x="1540" 
d="M1226 1126l0.000976562 -230.999h240v-95h-238v-495c0 -34 0.333008 -64.5 1 -91.5s3.83398 -50.167 9.50098 -69.5s14.834 -34.166 27.501 -44.499s30.667 -15.5 54 -15.5c10 0 19.5 1.83301 28.5 5.5s17 9.83398 24 18.501s12.667 19.834 17 33.501s6.5 30.5 6.5 50.5
l92 9c0 -39.333 -5.5 -73 -16.5 -101s-25.833 -51.167 -44.5 -69.5s-40.334 -31.833 -65.001 -40.5s-50.667 -13 -78 -13c-52 0 -93.333 9.16699 -124 27.5s-53.667 44.5 -69 78.5c-72 -34.667 -145.5 -60.5 -220.5 -77.5s-148.833 -25.5 -221.5 -25.5
c-87.333 0 -164.333 12.667 -231 38s-122.834 59.166 -168.501 101.499s-80.167 90.833 -103.5 145.5s-35 111.334 -35 170.001c0 39.333 5.5 78.833 16.5 118.5s27.5 78.334 49.5 116.001s49.833 73.334 83.5 107.001s73.167 64.167 118.5 91.5
c-22 33.333 -38.167 66.166 -48.5 98.499s-15.5 64.166 -15.5 95.499c0 42.667 9.33301 82.667 28 120s45.334 70 80.001 98s76.667 50 126 66s104.666 24 165.999 24c62.667 0 119.167 -6 169.5 -18s94.833 -27.667 133.5 -47l13 -180l-91 -10c-2 28 -8.66699 52 -20 72
s-26.333 36.5 -45 49.5s-39.834 22.5 -63.501 28.5s-48.5 9 -74.5 9c-47.333 0 -88.833 -5.83301 -124.5 -17.5s-65.5 -27.834 -89.5 -48.501s-42.167 -44.834 -54.5 -72.501s-18.5 -57.834 -18.5 -90.501c0 -47.333 12.667 -97.333 38 -150h590c0 3.33301 0.333008 9 1 17
s1.5 17.167 2.5 27.5s2 21.666 3 33.999s2.16699 24.5 3.5 36.5l9 93zM479.001 800.001c-35.333 -22 -66 -46.999 -92 -74.999s-47.667 -57.5 -65 -88.5s-30.333 -63 -39 -96s-13 -65.833 -13 -98.5c0 -46 8.33301 -90 25 -132s41.834 -79.333 75.501 -112
s75.5 -58.667 125.5 -78s108 -29 174 -29c59.333 0 122.166 8 188.499 24s134.833 41.333 205.5 76c-1.33301 16 -2.33301 33.667 -3 53s-1 38.666 -1 57.999v498h-581z" />
    <glyph glyph-name="quotesingle" unicode="'" horiz-adv-x="405" 
d="M173 880c-4.66699 34.667 -9.99805 70.167 -15.998 106.5l-17.5 108.5c-5.66699 36 -10.334 71.5 -14.001 106.5s-5.5 68.833 -5.5 101.5c0 16 2.5 30.167 7.5 42.5s11.667 22.5 20 30.5s17.666 14.167 27.999 18.5s20.833 6.5 31.5 6.5c20 0 38.167 -7.66699 54.5 -23
s24.5 -39 24.5 -71c0 -63.333 -5.33301 -129.5 -16 -198.5l-36 -228.5h-61z" />
    <glyph glyph-name="parenleft" unicode="(" horiz-adv-x="700" 
d="M640 1247c-106.667 -92 -185.664 -200.668 -236.997 -326.001s-77 -271.333 -77 -438c0 -83.333 6.16699 -161.166 18.5 -233.499s31.166 -140 56.499 -203s57.666 -121.833 96.999 -176.5s86 -106 140 -154l-77 -54c-76 48 -139.833 103.5 -191.5 166.5
s-93.334 130 -125.001 201s-54.5 144.333 -68.5 220s-21 150.167 -21 223.5c0 80 7.16699 159.5 21.5 238.5s37.5 154.667 69.5 227s74 139.5 126 201.5s115.667 116 191 162z" />
    <glyph glyph-name="parenright" unicode=")" horiz-adv-x="700" 
d="M148 1302c72 -50 133.168 -106.167 183.501 -168.5s91.333 -128.5 123 -198.5s54.667 -142.333 69 -217s21.5 -149.667 21.5 -225c0 -78 -7 -156.167 -21 -234.5s-37 -153.5 -69 -225.5s-74.167 -139.667 -126.5 -203s-116.833 -119.333 -193.5 -168l-78 54
c108.667 94.667 188.667 205.167 240 331.5s77 273.833 77 442.5c0 82.667 -6.33301 160 -19 232s-32 139.5 -58 202.5s-58.833 122 -98.5 177s-86.834 106.833 -141.501 155.5l45.5 22.5z" />
    <glyph glyph-name="asterisk" unicode="*" horiz-adv-x="946" 
d="M407 551c12 25.333 21.166 52.332 27.499 80.999s10.5 64.667 12.5 108c-30 -22 -55.5 -44 -76.5 -66s-39.5 -47.667 -55.5 -77l-109 -83l-80 114l118 71c28 5.33301 56.167 14.166 84.5 26.499s60.833 29.833 97.5 52.5c-37.333 23.333 -70 40.833 -98 52.5
s-56 19.834 -84 24.501l-118 72l80 114l109 -83c16 -28.667 34.667 -54 56 -76s46.666 -43.333 75.999 -64c-2 41.333 -6.33301 76.5 -13 105.5s-15.667 56.167 -27 81.5l-7 135h142l-8 -134c-15.333 -30 -25.833 -59.333 -31.5 -88s-9.5 -60.667 -11.5 -96
c34.667 25.333 62.334 48.666 83.001 69.999s38 43.333 52 66l110 83l80 -114l-118 -72c-36 -4 -68.833 -12.5 -98.5 -25.5s-61.167 -30.167 -94.5 -51.5c32.667 -21.333 64.167 -38.666 94.5 -51.999s63.5 -22.333 99.5 -27l117 -71l-80 -114l-110 83
c-14 23.333 -31.167 45.666 -51.5 66.999s-48.166 45 -83.499 71c1.33301 -35.333 5 -67.666 11 -96.999s16.667 -58.666 32 -87.999l8 -135h-135v136z" />
    <glyph glyph-name="plus" unicode="+" horiz-adv-x="1536" 
d="M830 680h508v-120h-508v-502h-123v502h-510v120h510v501h123v-501z" />
    <glyph glyph-name="comma" unicode="," horiz-adv-x="560" 
d="M401 190l-40 -191c-12 -58 -30.667 -108.167 -56 -150.5s-58.666 -72.5 -99.999 -90.5l-58 54c24 16.667 40.667 41.167 50 73.5s16.666 71.833 21.999 118.5l-67 5l23 181h226z" />
    <glyph glyph-name="hyphen" unicode="-" horiz-adv-x="759" 
d="M682 526v-146h-606v146h606z" />
    <glyph glyph-name="period" unicode="." horiz-adv-x="560" 
d="M271 172c18.667 0 34.835 -2.5 48.502 -7.5s25 -11.667 34 -20s15.5 -17.833 19.5 -28.5s6 -22 6 -34c0 -24 -8.33301 -45.167 -25 -63.5s-44.334 -27.5 -83.001 -27.5s-66.167 8.83301 -82.5 26.5s-24.5 39.167 -24.5 64.5c0 12 2 23.333 6 34s10.333 20.167 19 28.5
s19.667 15 33 20s29.666 7.5 48.999 7.5z" />
    <glyph glyph-name="slash" unicode="/" horiz-adv-x="559" 
d="M583 1304l-497 -1409h-124l497 1409h124z" />
    <glyph glyph-name="zero" unicode="0" horiz-adv-x="1142" 
d="M571 1315c155.333 0 273.168 -56.1699 353.501 -168.503s120.5 -279.166 120.5 -500.499c0 -222 -40.833 -389 -122.5 -501s-198.834 -168 -351.501 -168c-155.333 0 -273.333 56.333 -354 169s-121 279.334 -121 500.001c0 218.667 40.333 384.834 121 498.501
s198.667 170.5 354 170.5zM571.002 1214c-204.667 0 -307.001 -188.332 -307.001 -564.999c0 -92.667 5.83301 -174.334 17.5 -245.001s29.834 -129.834 54.501 -177.501s56.5 -83.667 95.5 -108s85.5 -36.5 139.5 -36.5c106.667 0 184.5 48.333 233.5 145
s73.5 236.667 73.5 420c0 190.667 -25.5 332.834 -76.5 426.501s-127.833 140.5 -230.5 140.5z" />
    <glyph glyph-name="one" unicode="1" horiz-adv-x="1142" 
d="M672 1258l-0.000976562 -1104c0 -11.333 0.666992 -20.5 2 -27.5s6.16602 -12.667 14.499 -17s21.5 -7.33301 39.5 -9s43.333 -2.5 76 -2.5h66v-98h-63h-64c-22 0 -45.333 0.166992 -70 0.5s-51.667 0.833008 -81 1.5c-34 0 -63.833 -0.166992 -89.5 -0.5
s-49.5 -0.5 -71.5 -0.5s-43.333 -0.166992 -64 -0.5s-42.667 -0.5 -66 -0.5v98h101c26.667 0 47.334 1.5 62.001 4.5s25.334 7.16699 32.001 12.5s10.667 11.666 12 18.999s2 15 2 23v994c-40 -20 -80.167 -37 -120.5 -51s-80.166 -25.333 -119.499 -34v124
c51.333 9.33301 101.666 22.666 150.999 39.999s99 38.333 149 63z" />
    <glyph glyph-name="two" unicode="2" horiz-adv-x="1142" 
d="M130 0c-0.666992 6.66699 -0.999023 13.667 -0.999023 21v22c0 90 13.167 167.333 39.5 232s62.166 122.167 107.499 172.5s98.166 96.666 158.499 138.999l193.5 131.5c31.333 20.667 58.666 40.834 81.999 60.501s42.666 40 57.999 61s26.833 43.5 34.5 67.5
s11.5 50.667 11.5 80c0 34.667 -6.33301 66 -19 94s-30.5 51.833 -53.5 71.5s-50.5 34.834 -82.5 45.501s-67 16 -105 16c-54 0 -99 -6 -135 -18s-64.667 -29.333 -86 -52s-36.666 -50.667 -45.999 -84s-14 -71 -14 -113l-114 3v245c24.667 19.333 51.334 36.5 80.001 51.5
s60.167 27.5 94.5 37.5s72 17.5 113 22.5s86.167 7.5 135.5 7.5c62.667 0 118.5 -7.66699 167.5 -23s90.333 -37.833 124 -67.5s59.334 -65.834 77.001 -108.501s26.5 -91 26.5 -145c0 -50 -8 -93.167 -24 -129.5s-40 -70.5 -72 -102.5s-72.333 -64.5 -121 -97.5
l-171 -114.5c-60 -40 -109.667 -78.333 -149 -115s-70.5 -72 -93.5 -106s-39.167 -66.833 -48.5 -98.5s-14 -62.167 -14 -91.5h520c16.667 0 29.5 3.16699 38.5 9.5s15.667 19 20 38s7 46 8 81s1.5 80.833 1.5 137.5h105v-381h-847z" />
    <glyph glyph-name="three" unicode="3" horiz-adv-x="1142" 
d="M237 387c0 -101.333 25.834 -176.501 77.501 -225.501s128.167 -73.5 229.5 -73.5c36.667 0 72.334 5.33301 107.001 16s65.5 27 92.5 49s48.833 50 65.5 84s25 74 25 120c0 52 -9.83301 95.333 -29.5 130s-46.167 62.5 -79.5 83.5s-72 36 -116 45s-90 13.5 -138 13.5
v108c48 0.666992 91.5 6.5 130.5 17.5s72.333 27 100 48s49 46.833 64 77.5s22.5 66.334 22.5 107.001c0 34 -6.16699 65.167 -18.5 93.5s-30 52.5 -53 72.5s-50.5 35.5 -82.5 46.5s-67.333 16.5 -106 16.5c-46 0 -85 -5.83301 -117 -17.5s-58 -28.667 -78 -51
s-34.5 -49.666 -43.5 -81.999s-13.5 -69.5 -13.5 -111.5l-117 2l1 252c50 36 106.5 62.833 169.5 80.5s131.167 26.5 204.5 26.5c64.667 0 122.5 -7.5 173.5 -22.5s94.333 -36.833 130 -65.5s62.834 -63.334 81.501 -104.001s28 -87 28 -139
c0 -75.333 -20.333 -137.5 -61 -186.5s-102.334 -84.167 -185.001 -105.5c43.333 -8.66699 83.166 -21.5 119.499 -38.5s67.833 -39.167 94.5 -66.5s47.334 -60.166 62.001 -98.499s22 -82.833 22 -133.5c0 -58.667 -10.833 -111.334 -32.5 -158.001
s-52.667 -86.334 -93 -119.001s-89.333 -57.667 -147 -75s-122.834 -26 -195.501 -26c-62 0 -118.333 8.83301 -169 26.5s-94.334 43.834 -131.001 78.501s-65 77.5 -85 128.5s-30.333 109.5 -31 175.5z" />
    <glyph glyph-name="four" unicode="4" horiz-adv-x="1142" 
d="M828 1297l-0.000976562 -809.001h217v-105h-217v-227c0 -12 0.5 -22 1.5 -30s4.83301 -14.5 11.5 -19.5s17 -8.66699 31 -11s34 -3.5 60 -3.5h53v-92c-33.333 0 -72.833 0.333008 -118.5 1s-95.5 1 -149.5 1c-26 0 -49.167 -0.166992 -69.5 -0.5
s-39.166 -0.5 -56.499 -0.5s-34 -0.166992 -50 -0.5s-33 -0.5 -51 -0.5v92h65c28 0 50.333 0.833008 67 2.5s29.167 4.33398 37.5 8.00098s13.833 8.66699 16.5 15s4 14.5 4 24.5v241h-564c-3.33301 24 -7 46.667 -11 68s-9 42 -15 62l557 784h181zM202.999 485.999h478v684
h-2z" />
    <glyph glyph-name="five" unicode="5" horiz-adv-x="1142" 
d="M848 1095c0 19.333 -0.165039 34.334 -0.498047 45.001s-1.16602 18.5 -2.49902 23.5s-3.66602 7.83301 -6.99902 8.5s-8 1 -14 1h-486l-1.5 -31.5c-1 -21 -2.33301 -47.5 -4 -79.5s-3.33398 -66.667 -5.00098 -104l-4.5 -104.5c-1.33301 -32.333 -2.5 -59.5 -3.5 -81.5
s-1.5 -33.667 -1.5 -35c40 32 83.5 55.833 130.5 71.5s96.5 23.5 148.5 23.5c63.333 0 120.833 -9.83301 172.5 -29.5s95.667 -47.667 132 -84s64.5 -80.333 84.5 -132s30 -109.167 30 -172.5c0 -74.667 -12.833 -139.5 -38.5 -194.5s-60.5 -100.5 -104.5 -136.5
s-95.833 -62.667 -155.5 -80s-123.5 -26 -191.5 -26c-58.667 0 -115.334 7.16699 -170.001 21.5s-106 35.5 -154 63.5l-21 256l103 1c6.66699 -79.333 31 -139.333 73 -180s107.667 -61 197 -61c43.333 0 83.166 7.16699 119.499 21.5s67.5 35.5 93.5 63.5
s46.333 62.667 61 104s22 88.666 22 141.999c0 48 -6.83301 91.333 -20.5 130s-33.167 71.5 -58.5 98.5s-55.833 47.833 -91.5 62.5s-75.834 22 -120.501 22c-61.333 0 -114.5 -11.833 -159.5 -35.5s-84.5 -59.167 -118.5 -106.5l-78 26v684h748v-235h-103v40z" />
    <glyph glyph-name="six" unicode="6" horiz-adv-x="1142" 
d="M626 1315c45.333 0 86.668 -2.99707 124.001 -8.99707s71.333 -14 102 -24s58.5 -21.667 83.5 -35s47.5 -27.333 67.5 -42l2 -194l-101 -2c-1.33301 70.667 -23.333 123.167 -66 157.5s-113 51.5 -211 51.5c-60.667 0 -112.334 -11.833 -155.001 -35.5
s-77.5 -58.334 -104.5 -104.001s-46.667 -102 -59 -169s-18.5 -143.5 -18.5 -229.5c44 52 95 91.167 153 117.5s120.333 39.5 187 39.5c62 0 118.333 -10 169 -30s94 -48.333 130 -85s63.833 -80.334 83.5 -131.001s29.5 -107 29.5 -169
c0 -67.333 -10.5 -128.333 -31.5 -183s-51.167 -101.334 -90.5 -140.001s-86.833 -68.5 -142.5 -89.5s-118.167 -31.5 -187.5 -31.5c-75.333 0 -141.666 12.5 -198.999 37.5s-105.666 63.5 -144.999 115.5s-69 117.667 -89 197s-30 173 -30 281
c0 100.667 8.66699 194.167 26 280.5s45.666 161 84.999 224s90.666 112.333 153.999 148s141.333 53.5 234 53.5zM596.002 730.003c-50 0 -97.835 -11.333 -143.502 -34s-86.5 -55 -122.5 -97c-22.667 -47.333 -34 -102 -34 -164c0 -55.333 7 -105 21 -149
s34 -81.333 60 -112s57.333 -54.167 94 -70.5s77.667 -24.5 123 -24.5c42.667 0 81.5 7.33301 116.5 22s65 36 90 64s44.167 62.333 57.5 103s20 87 20 139c0 46.667 -5.83301 89.667 -17.5 129s-29.167 73.333 -52.5 102s-52.666 51.167 -87.999 67.5
s-76.666 24.5 -123.999 24.5z" />
    <glyph glyph-name="seven" unicode="7" horiz-adv-x="1142" 
d="M156 1290h855.001v-137c-70.667 -94 -133.167 -190.167 -187.5 -288.5s-101.333 -196.5 -141 -294.5s-71.834 -194.833 -96.501 -290.5s-42.667 -188.5 -54 -278.5h-174c12.667 89.333 32.167 183.5 58.5 282.5s60.333 199.167 102 300.5s91.5 202 149.5 302
s125 196 201 288h-438c-40 0 -71.167 -0.833008 -93.5 -2.5s-38.833 -4.5 -49.5 -8.5s-17 -9.5 -19 -16.5s-3 -15.833 -3 -26.5v-164h-110v334z" />
    <glyph glyph-name="eight" unicode="8" horiz-adv-x="1142" 
d="M737 685c102.667 -25.333 179.497 -66.8311 230.497 -124.498s76.5 -129.167 76.5 -214.5c0 -56 -10.667 -106.833 -32 -152.5s-52.333 -84.5 -93 -116.5s-90.667 -56.667 -150 -74s-127 -26 -203 -26c-73.333 0 -139 8.5 -197 25.5s-107.167 41.333 -147.5 73
s-71.166 70.167 -92.499 115.5s-32 96.333 -32 153c0 85.333 25.5 156.5 76.5 213.5s125.833 98.5 224.5 124.5c-82 21.333 -145.333 58.666 -190 111.999s-67 116.666 -67 189.999c0 52 10 98.333 30 139s48.5 75.334 85.5 104.001s81.833 50.5 134.5 65.5
s111.667 22.5 177 22.5c66.667 0 126.834 -7.5 180.501 -22.5s99.334 -36.667 137.001 -65s66.5 -62.833 86.5 -103.5s30 -86.334 30 -137.001c0 -75.333 -22.333 -138.5 -67 -189.5s-110.667 -88.5 -198 -112.5zM573.997 82.002c46 0 88.5 5.99902 127.5 17.999
s72.833 29.167 101.5 51.5s51 49.833 67 82.5s24 70 24 112c0 32.667 -6.16699 64.167 -18.5 94.5s-31.833 58 -58.5 83s-60.5 46.833 -101.5 65.5s-90.167 33 -147.5 43c-103.333 -16.667 -181.5 -48.667 -234.5 -96s-79.5 -109.666 -79.5 -186.999
c0 -40 7.16699 -76.5 21.5 -109.5s35 -61.167 62 -84.5s60.333 -41.333 100 -54s85.167 -19 136.5 -19zM573.997 1215c-42 0 -80.332 -4.99902 -114.999 -14.999s-64.167 -24.5 -88.5 -43.5s-43.333 -42.167 -57 -69.5s-20.5 -58 -20.5 -92c0 -66.667 24 -122 72 -166
s117.667 -74.333 209 -91c89.333 17.333 157.333 47.166 204 89.499s70 96.833 70 163.5c0 40 -7.83301 74.167 -23.5 102.5s-36.334 51.5 -62.001 69.5s-55 31.167 -88 39.5s-66.5 12.5 -100.5 12.5z" />
    <glyph glyph-name="nine" unicode="9" horiz-adv-x="1142" 
d="M553 1213c-43.333 0 -82.502 -7.33203 -117.502 -21.999s-64.833 -36.334 -89.5 -65.001s-43.667 -63.667 -57 -105s-20 -88.666 -20 -141.999c0 -44.667 5.83301 -86.167 17.5 -124.5s29.334 -71.666 53.001 -99.999s52.834 -50.666 87.501 -66.999s75 -24.5 121 -24.5
c36.667 0 71.167 5.5 103.5 16.5s61.666 27.167 87.999 48.5s49.166 47.666 68.499 78.999s34.333 67 45 107c0 61.333 -6.33301 116.666 -19 165.999s-31.667 91.166 -57 125.499s-56.666 60.833 -93.999 79.5s-80.666 28 -129.999 28zM530.998 -22.999
c-81.333 0 -152.332 10.8291 -212.999 32.4961s-109.334 52.834 -146.001 93.501l-1 178l118 2c2 -36.667 7.33301 -68 16 -94s22 -47.5 40 -64.5s41.333 -29.5 70 -37.5s64 -12 106 -12c62.667 0 115.5 11.667 158.5 35s77.833 57.666 104.5 102.999
s45.834 101.333 57.501 168s17.5 143.334 17.5 230.001c-42 -51.333 -92.167 -90 -150.5 -116s-121.833 -39 -190.5 -39c-62.667 0 -119.334 10 -170.001 30s-93.834 48.167 -129.501 84.5s-63.167 80 -82.5 131s-29 107.5 -29 169.5c0 68.667 10.5 130.334 31.5 185.001
s51 101.334 90 140.001s86.167 68.334 141.5 89.001s117.333 31 186 31c74.667 0 140.834 -12.667 198.501 -38s106 -64 145 -116s68.5 -118 88.5 -198s30 -174.333 30 -283c0 -100 -8.5 -193 -25.5 -279s-44.667 -160.5 -83 -223.5s-88.5 -112.333 -150.5 -148
s-138 -53.5 -228 -53.5z" />
    <glyph glyph-name="colon" unicode=":" horiz-adv-x="571" 
d="M284 882c38 0 65.333 -8.99902 82 -26.999s25 -39 25 -63s-8.16699 -45 -24.5 -63s-43.833 -27 -82.5 -27s-66.167 8.66699 -82.5 26s-24.5 38.666 -24.5 63.999c0 24 8.33301 45 25 63s44 27 82 27zM284 172.001c38 0 65.334 -9 82.001 -27s25 -39 25 -63
s-8.16699 -45.167 -24.5 -63.5s-43.833 -27.5 -82.5 -27.5s-66.167 8.83301 -82.5 26.5s-24.5 39.167 -24.5 64.5c0 12 2 23.333 6 34s10.333 20.167 19 28.5s19.667 15 33 20s29.666 7.5 48.999 7.5z" />
    <glyph glyph-name="semicolon" unicode=";" horiz-adv-x="571" 
d="M398 190l-40.001 -191c-12 -58 -30.667 -108.167 -56 -150.5s-58.666 -72.5 -99.999 -90.5l-58 54c24.667 16.667 41.5 41.167 50.5 73.5s16.5 71.833 22.5 118.5l-68 5l23 181h226zM285.999 882c37.333 0 64.5 -8.99902 81.5 -26.999s25.5 -39 25.5 -63
s-8.16699 -45 -24.5 -63s-43.833 -27 -82.5 -27s-66.334 8.66699 -83.001 26s-25 38.666 -25 63.999c0 24 8.33301 45 25 63s44.334 27 83.001 27z" />
    <glyph glyph-name="less" unicode="&#x3c;" horiz-adv-x="1536" 
d="M378 619l955 -380v-132l-1131 460v107l1131 460v-132z" />
    <glyph glyph-name="equal" unicode="=" horiz-adv-x="1536" 
d="M1338 769h-1141v121h1141v-121zM1338 352h-1141v121h1141v-121z" />
    <glyph glyph-name="greater" unicode="&#x3e;" horiz-adv-x="1536" 
d="M1333 567l-1131 -460v132l956 380l-956 383v132l1131 -460v-107z" />
    <glyph glyph-name="question" unicode="?" horiz-adv-x="980" 
d="M492 364l-112.995 0.00390625c-0.666992 1.33301 -1.33398 7.33301 -2.00098 18s-1.33398 22.167 -2.00098 34.5s-1.16699 23.5 -1.5 33.5s-0.5 15.667 -0.5 17c0 36.667 5.16699 68.5 15.5 95.5s24 50.833 41 71.5s36.333 39 58 55s44 31.333 67 46s45.333 29.667 67 45
s41 32.5 58 51.5s30.667 40.833 41 65.5s15.5 53.667 15.5 87c0 34.667 -6.5 66.167 -19.5 94.5s-31.333 52.666 -55 72.999s-52 36 -85 47s-69.5 16.5 -109.5 16.5c-90.667 0 -156.834 -22 -198.501 -66s-62.834 -111 -63.501 -201h-116l5 252
c50.667 36.667 107.834 65 171.501 85s132.167 30 205.5 30c67.333 0 127.666 -7.33301 180.999 -22s98.666 -35.5 135.999 -62.5s66 -59.5 86 -97.5s30 -80.667 30 -128c0 -53.333 -8.33301 -98.333 -25 -135s-38 -68.334 -64 -95.001s-54.667 -50.334 -86 -71.001
s-61.833 -42.334 -91.5 -65.001s-56.5 -48 -80.5 -76s-41.667 -62.333 -53 -103zM440.005 172.004c18.667 0 34.835 -2.5 48.502 -7.5s25 -11.667 34 -20s15.5 -17.833 19.5 -28.5s6 -22 6 -34c0 -24 -8.33301 -45.167 -25 -63.5s-44.334 -27.5 -83.001 -27.5
s-66.167 8.83301 -82.5 26.5s-24.5 39.167 -24.5 64.5c0 12 2 23.333 6 34s10.333 20.167 19 28.5s19.667 15 33 20s29.666 7.5 48.999 7.5z" />
    <glyph glyph-name="at" unicode="@" horiz-adv-x="1809" 
d="M1233 60c-51.333 0 -91.3359 12.499 -120.003 37.499s-43 64.167 -43 117.5c0 5.33301 0.166992 10.833 0.5 16.5s0.833008 11.5 1.5 17.5c-0.666992 0 -1.16699 0.166992 -1.5 0.5s-0.833008 0.5 -1.5 0.5c-88 -126 -193.333 -189 -316 -189c-46 0 -88 9 -126 27
s-70.667 43.333 -98 76s-48.5 71.667 -63.5 117s-22.5 95 -22.5 149c0 39.333 5 80.5 15 123.5s24.667 85.333 44 127s43 81.5 71 119.5s60.167 71.333 96.5 100s76.5 51.5 120.5 68.5s91.667 25.5 143 25.5c63.333 0 116.333 -14.5 159 -43.5s76 -75.167 100 -138.5l42 166
h138l-153 -627c-2 -12 -4.5 -24.333 -7.5 -37l-8.5 -37.5c-2.66699 -12.333 -5 -24.166 -7 -35.499s-3 -21.333 -3 -30c0 -53.333 23.333 -80 70 -80c22 0 47 5.5 75 16.5s56.333 27.167 85 48.5c34.667 26 66.334 56.333 95.001 91s53.334 73.5 74.001 116.5
s36.667 90 48 141s17 105.833 17 164.5c0 78.667 -13.833 154.667 -41.5 228s-69.167 138.166 -124.5 194.499s-124.666 101.333 -207.999 135s-181 50.5 -293 50.5c-121.333 0 -232.166 -20.667 -332.499 -62s-186.333 -98.666 -258 -171.999s-127.167 -160 -166.5 -260
s-59 -209 -59 -327c0 -109.333 19.333 -209 58 -299s92.667 -167 162 -231s152.333 -113.667 249 -149s203 -53 319 -53c116.667 0 228.167 19.167 334.5 57.5s204.833 100.833 295.5 187.5l74 -19c-43.333 -45.333 -90.833 -86.333 -142.5 -123s-107.5 -67.667 -167.5 -93
s-123.5 -44.833 -190.5 -58.5s-136.833 -20.5 -209.5 -20.5c-134 0 -255.5 20.167 -364.5 60.5s-202.333 96.666 -280 168.999s-137.667 158.5 -180 258.5s-63.5 209.333 -63.5 328c0 77.333 9.66699 152.666 29 225.999s47.166 142.333 83.499 207s81 124.167 134 178.5
s113.333 101 181 140s142 69.333 223 91s168.167 32.5 261.5 32.5c122.667 0 230.834 -18.5 324.501 -55.5s171.834 -87 234.501 -150s110 -136.167 142 -219.5s48 -171.333 48 -264c0 -60 -6.83301 -117.333 -20.5 -172s-32.334 -105.667 -56.001 -153
s-51.334 -90.166 -83.001 -128.499s-66 -71.166 -103 -98.499s-75.333 -48.333 -115 -63s-79.167 -22 -118.5 -22zM1143 696.999c0 33.333 -4.83203 64.166 -14.499 92.499s-23.334 52.833 -41.001 73.5s-38.834 36.834 -63.501 48.501s-52 17.5 -82 17.5
c-36 0 -69.833 -9 -101.5 -27s-60.667 -41.833 -87 -71.5s-49.833 -63.5 -70.5 -101.5s-38.167 -77 -52.5 -117s-25.333 -79.667 -33 -119s-11.5 -74.666 -11.5 -105.999c0 -78.667 17.667 -140 53 -184s83.333 -66 144 -66c34 0 66.667 8.83301 98 26.5
s60.333 41.167 87 70.5s50.834 63.166 72.501 101.499s40 78.166 55 119.499s26.667 82.833 35 124.5s12.5 80.834 12.5 117.501z" />
    <glyph glyph-name="A" unicode="A" horiz-adv-x="1383" 
d="M810 1290l17 -45l45 -119l64.5 -168.5l74 -194l74 -194.5l65.5 -170.5l47 -123c12 -31.667 18.333 -48.5 19 -50.5c12 -31.333 21.833 -55.5 29.5 -72.5s17.167 -29.5 28.5 -37.5s26.833 -12.833 46.5 -14.5s47.5 -2.5 83.5 -2.5v-98c-37.333 -0 -74.333 0.333008 -111 1
s-74.667 1 -114 1h-62h-62c-21.333 0 -44 -0.166992 -68 -0.5s-51 -0.833008 -81 -1.5c0 5.33301 -0.166992 13.5 -0.5 24.5s-0.5 21.833 -0.5 32.5v39c30.667 0 55.667 0.166992 75 0.5s34.666 1.33301 45.999 3s19.166 4.33398 23.499 8.00098s6.5 8.83398 6.5 15.501
c-1.33301 3.33301 -2.33301 7.66602 -3 12.999s-2 11.666 -4 18.999l-106 318h-523c-0.666992 -1.33301 -3.66699 -9.83301 -9 -25.5l-20 -58l-26 -74.5l-26.5 -74.5l-20.5 -58c-5.33301 -15.667 -8 -23.834 -8 -24.501c-6.66699 -16.667 -10 -28.667 -10 -36
c0 -12.667 6.83301 -20.334 20.5 -23.001s36.5 -4 68.5 -4h72v-95c-37.333 0 -74.5 0.333008 -111.5 1s-74.5 1 -112.5 1h-57.5h-56.5c-19.333 0 -39.833 -0.166992 -61.5 -0.5s-45.834 -0.833008 -72.501 -1.5v99c33.333 0.666992 59.5 1.33398 78.5 2.00098
s33.833 3.33398 44.5 8.00098s18.834 11.667 24.501 21s11.834 23 18.501 41c0.666992 2 4.83398 12.833 12.501 32.5l30 77.5l42.5 111.5l51.5 134.5l56 145.5l55.5 145.5l51.5 134.5l43 111.5l29.5 77.5c7.33301 19.667 11.333 30.5 12 32.5l40 116h231zM458 574h448
l-224 622z" />
    <glyph glyph-name="B" unicode="B" horiz-adv-x="1238" 
d="M578 1290c95.333 0 175.502 -7.16992 240.502 -21.5029s117.333 -35.166 157 -62.499s68 -61.166 85 -101.499s25.5 -86.833 25.5 -139.5c0 -144 -76.667 -240 -230 -288c95.333 -21.333 167 -59 215 -113s72 -123.667 72 -209c0 -48.667 -8 -94.5 -24 -137.5
s-43 -80.667 -81 -113s-88.333 -57.833 -151 -76.5s-140.334 -28 -233.001 -28h-596v99h63c27.333 0 48.333 1.83301 63 5.5s25.5 8.83398 32.5 15.501s11 14.5 12 23.5s1.5 18.833 1.5 29.5v951c0 13.333 -1.33301 24.333 -4 33s-9.83398 15.5 -21.501 20.5
s-29 8.5 -52 10.5s-54.5 3 -94.5 3v99h520zM412.002 717.997l201.998 -0.00195312c47.333 0 89.333 5.5 126 16.5s67.334 26.833 92.001 47.5s43.334 45.5 56.001 74.5s19 61.5 19 97.5c0 32 -5.33301 61.833 -16 89.5s-28 51.834 -52 72.501s-55.5 36.834 -94.5 48.501
s-86.5 17.5 -142.5 17.5h-190v-464zM412 108.995h212c114 0 198 22 252 66s81 104.333 81 181c0 46 -7.66699 85.5 -23 118.5s-39.333 60.333 -72 82s-74.5 37.5 -125.5 47.5s-112.167 15 -183.5 15h-141v-510z" />
    <glyph glyph-name="C" unicode="C" horiz-adv-x="1413" 
d="M792 91c68.667 0 129 5.49902 181 16.499s95.667 29.667 131 56s62 61.333 80 105s27.333 98.167 28 163.5l116 -20l-10 -260c-40 -34.667 -82.167 -63.334 -126.5 -86.001s-89.666 -40.667 -135.999 -54s-93.333 -22.666 -141 -27.999s-94.834 -8 -141.501 -8
c-108 0 -202.833 16 -284.5 48s-150.167 77.167 -205.5 135.5s-97 128.5 -125 210.5s-42 173 -42 273c0 102 16 194.167 48 276.5s77 152.833 135 211.5s127.5 103.834 208.5 135.501s170.833 47.5 269.5 47.5c75.333 0 146.333 -12 213 -36s124.667 -57.667 174 -101l11 99
h125v-359l-116 2c-4 46 -16.167 86.667 -36.5 122s-47.333 64.833 -81 88.5s-73.667 41.5 -120 53.5s-97.833 18 -154.5 18c-73.333 0 -139.5 -13 -198.5 -39s-109.333 -63 -151 -111s-73.834 -106.167 -96.501 -174.5s-34 -144.833 -34 -229.5
c0 -86 11.333 -163.333 34 -232s54.834 -127 96.501 -175s92 -84.833 151 -110.5s125.167 -38.5 198.5 -38.5z" />
    <glyph glyph-name="D" unicode="D" horiz-adv-x="1477" 
d="M566 1290c266.667 0 467.334 -51.834 602.001 -155.501s202 -262.167 202 -475.5c0 -110.667 -15.5 -207.167 -46.5 -289.5s-78.833 -150.833 -143.5 -205.5s-146.834 -95.667 -246.501 -123s-218.5 -41 -356.5 -41h-527v99h65c28 0 49.5 2 64.5 6s26 9.83301 33 17.5
s11.167 17.334 12.5 29.001s2 25.167 2 40.5v39.5c0 26.333 -0.166992 61 -0.5 104s-0.5 92 -0.5 147v168.5v457c0 20 -2.33301 35.5 -7 46.5s-13.5 19.333 -26.5 25s-31 9.16699 -54 10.5s-52.5 2 -88.5 2v98h516zM409 110.999l204.998 0.000976562
c90 0 169.833 10.333 239.5 31s128.334 53 176.001 97s83.834 100.333 108.501 169s37 151 37 247c0 89.333 -12.167 167 -36.5 233s-60.166 120.667 -107.499 164s-105.833 75.666 -175.5 96.999s-149.834 32 -240.501 32h-206v-1070z" />
    <glyph glyph-name="E" unicode="E" horiz-adv-x="1219" 
d="M1125 1288v-325.998h-113v48c0 41.333 -1.5 73.166 -4.5 95.499s-7.5 38.666 -13.5 48.999s-13.5 16.333 -22.5 18s-19.5 2.5 -31.5 2.5h-531v-462h345c6.66699 0 12.334 0.5 17.001 1.5s8.66699 4.66699 12 11s6.16602 16.833 8.49902 31.5s4.5 36 6.5 64h80v-322h-80
c-2 27.333 -4.33301 48.5 -7 63.5s-6 26 -10 33s-8.66699 11.167 -14 12.5s-11.666 2 -18.999 2h-339v-498h540c15.333 0 27.5 3.16699 36.5 9.5s15.667 18.166 20 35.499s7.16602 41.333 8.49902 72s2 70.334 2 119.001h112v-348h-1081v99h115c16 0 28.333 2.33301 37 7
s15 11 19 19s6.33301 16.833 7 26.5s1 19.5 1 29.5v915c0 16 -0.166992 29.833 -0.5 41.5s-2.33301 21.5 -6 29.5s-10 14 -19 18s-21.833 6 -38.5 6h-107v97h1070z" />
    <glyph glyph-name="F" unicode="F" horiz-adv-x="1106" 
d="M1094 1290l-0.000976562 -330h-111v41c0 44 -1.33301 77.833 -4 101.5s-7.16699 41 -13.5 52s-14.666 17.333 -24.999 19s-22.833 2.5 -37.5 2.5h-494v-462h287c5.33301 0 10.5 -0.166992 15.5 -0.5s9.83301 -0.5 14.5 -0.5c8 0 15 0.833008 21 2.5s11 5.5 15 11.5
s7.16699 14.5 9.5 25.5s3.83301 26.167 4.5 45.5h71v-271h-71c-0.666992 20.667 -2.66699 36.667 -6 48s-8.33301 19.666 -15 24.999s-14.667 8.5 -24 9.5s-20.333 1.5 -33 1.5h-289v-445c0 -16.667 2.33301 -29.5 7 -38.5s12 -15.667 22 -20s23.333 -6.83301 40 -7.5
s37 -1 61 -1h54v-99h-60.5h-61c-21 0 -43.5 0.166992 -67.5 0.5s-50.333 0.833008 -79 1.5c-30.667 0 -58.167 -0.166992 -82.5 -0.5s-47.333 -0.5 -69 -0.5s-42.834 -0.166992 -63.501 -0.5s-42 -0.5 -64 -0.5v99h117c14.667 0 26.334 1.66699 35.001 5s15 8.33301 19 15
s6.5 15 7.5 25s1.5 21.667 1.5 35v922c0 16.667 -0.166992 30.834 -0.5 42.501s-2.5 21 -6.5 28s-10.333 12 -19 15s-21 4.5 -37 4.5h-111v99h1042z" />
    <glyph glyph-name="G" unicode="G" horiz-adv-x="1529" 
d="M1299 918l-117.998 0.00390625c-6 44.667 -19 84.5 -39 119.5s-46.5 64.5 -79.5 88.5s-72 42.333 -117 55s-95.167 19 -150.5 19c-76.667 0 -145.5 -12.833 -206.5 -38.5s-112.833 -62.334 -155.5 -110.001s-75.334 -105.5 -98.001 -173.5s-34 -144.667 -34 -230
c0 -86.667 11.5 -164.334 34.5 -233.001s56.167 -126.834 99.5 -174.501s96.166 -84.167 158.499 -109.5s133.166 -38 212.499 -38c124 0 217.667 18.167 281 54.5s95 92.166 95 167.499v132c0 13.333 -1 23.5 -3 30.5s-7.16699 12.167 -15.5 15.5
s-21.166 5.16602 -38.499 5.49902s-41 0.5 -71 0.5h-125v105c22 0 43.833 -0.166992 65.5 -0.5s45 -0.5 70 -0.5s52 -0.166992 81 -0.5s61.5 -0.5 97.5 -0.5c12.667 0 28 0.166992 46 0.5s36.5 0.5 55.5 0.5s37.667 0.166992 56 0.5s34.5 0.5 48.5 0.5
c0 -1.33301 -0.333008 -7.16602 -1 -17.499s-1.16699 -21.666 -1.5 -33.999s-0.833008 -23.666 -1.5 -33.999s-1 -16.166 -1 -17.499c-30 -0.666992 -53.333 -1.83398 -70 -3.50098s-29 -4.5 -37 -8.5s-12.833 -9.16699 -14.5 -15.5s-2.5 -14.833 -2.5 -25.5
c0 -36 -1.83301 -79.5 -5.5 -130.5s-7.16699 -103.5 -10.5 -157.5c-36.667 -37.333 -75.5 -68 -116.5 -92s-82.667 -42.833 -125 -56.5s-84.833 -23 -127.5 -28s-84 -7.5 -124 -7.5c-116 0 -218 15.833 -306 47.5s-161.833 76.667 -221.5 135s-104.5 128.666 -134.5 210.999
s-45 174.166 -45 275.499c0 98.667 16.333 189.167 49 271.5s78 153 136 212s127 104.833 207 137.5s167.333 49 262 49c79.333 0 153.833 -11.5 223.5 -34.5s130.5 -59.5 182.5 -109.5l10 103h125v-356z" />
    <glyph glyph-name="H" unicode="H" horiz-adv-x="1489" 
d="M60 1290c22 0 45.332 -0.166992 69.999 -0.5s50 -0.5 76 -0.5s52 -0.166992 78 -0.5s51 -0.5 75 -0.5c2.66699 0 13 0.166992 31 0.5s38.667 0.5 62 0.5s46.833 0.166992 70.5 0.5s42.834 0.5 57.501 0.5v-99h-48c-30.667 0 -54.167 -1.16699 -70.5 -3.5
s-28.333 -6.33301 -36 -12s-12.167 -13.167 -13.5 -22.5s-2 -21 -2 -35v-393h669v401c0 16 -1.83301 28.5 -5.5 37.5s-10.334 15.5 -20.001 19.5s-22.334 6.33301 -38.001 7s-35.5 1 -59.5 1h-48v99c48.667 -1.33301 96.667 -2 144 -2h135c2.66699 0 13.667 0.166992 33 0.5
s41.833 0.5 67.5 0.5s51.667 0.166992 78 0.5s47.5 0.5 63.5 0.5v-99h-47c-30 0 -53.167 -1.16699 -69.5 -3.5s-28.333 -6.16602 -36 -11.499s-12.167 -12 -13.5 -20s-2 -18 -2 -30v-943c0 -5.33301 -0.166992 -10.5 -0.5 -15.5s-0.5 -9.83301 -0.5 -14.5
c0 -9.33301 1.16699 -17.333 3.5 -24s7.66602 -12.334 15.999 -17.001s20.5 -8 36.5 -10s38 -3 66 -3h47v-99c-22 0 -43.667 0.166992 -65 0.5s-43.166 0.5 -65.499 0.5s-45.833 0.166992 -70.5 0.5s-52 0.5 -82 0.5c-25.333 0 -48.666 -0.166992 -69.999 -0.5
s-41.5 -0.5 -60.5 -0.5s-37.167 -0.166992 -54.5 -0.5s-35 -0.5 -53 -0.5v99h48c30 0 53.333 1.83301 70 5.5s29 9 37 16s12.667 15.333 14 25s2 20.834 2 33.501v439h-669v-445c0 -19.333 1.66699 -34 5 -44s9.5 -17.333 18.5 -22s21.5 -7.16699 37.5 -7.5
s36.333 -0.5 61 -0.5h48v-99c-18.667 0 -36.667 0.166992 -54 0.5s-35.166 0.5 -53.499 0.5s-38.166 0.166992 -59.499 0.5s-45 0.5 -71 0.5c-30 0 -57.5 -0.166992 -82.5 -0.5s-48.5 -0.5 -70.5 -0.5s-43.5 -0.166992 -64.5 -0.5s-42.5 -0.5 -64.5 -0.5v99h47
c30 0 53.333 2 70 6s28.667 9.5 36 16.5s11.666 15.167 12.999 24.5s2 19.666 2 30.999v952c0 11.333 -0.666992 21 -2 29s-5.83301 14.5 -13.5 19.5s-19.667 8.5 -36 10.5s-39.5 3 -69.5 3h-47v99z" />
    <glyph glyph-name="I" unicode="I" horiz-adv-x="656" 
d="M68 1290c31.333 -1.33301 58.666 -2.16504 81.999 -2.49805s46.666 -0.5 69.999 -0.5c58.667 0 108.167 0.166992 148.5 0.5s74.333 0.666016 102 0.999023s50.667 0.666016 69 0.999023s35.5 0.5 51.5 0.5v-99h-49c-30 0 -53.333 -1.66699 -70 -5
s-28.834 -8.16602 -36.501 -14.499s-12.167 -13.833 -13.5 -22.5s-2 -18 -2 -28v-959c0 -12.667 0.666992 -23 2 -31s5.66602 -14.333 12.999 -19s19.333 -8 36 -10s40.334 -3 71.001 -3h49v-99c-20.667 0 -40.5 0.166992 -59.5 0.5s-38.667 0.5 -59 0.5
s-42.166 0.166992 -65.499 0.5s-49.666 0.5 -78.999 0.5c-53.333 0 -100.166 -0.333008 -140.499 -1s-80.166 -1 -119.499 -1v99h48c30.667 0 54.167 1.66699 70.5 5s28.333 8.16602 36 14.499s12.167 13.833 13.5 22.5s2 18 2 28v945c0 14.667 -0.833008 27 -2.5 37
s-6.33398 18 -14.001 24s-19.667 10.167 -36 12.5s-39.5 3.5 -69.5 3.5h-48v99z" />
    <glyph glyph-name="J" unicode="J" horiz-adv-x="763" 
d="M198 1290c18 0 36.167 -0.169922 54.5 -0.50293s38.5 -0.666016 60.5 -0.999023s46.333 -0.666016 73 -0.999023s57.667 -0.5 93 -0.5c2.66699 0 13.5 0.166992 32.5 0.5s41.167 0.666016 66.5 0.999023l78.5 1c27 0.333008 49.5 0.5 67.5 0.5v-99h-84
c-24 0 -42.5 -2.16699 -55.5 -6.5s-22.5 -10.166 -28.5 -17.499s-9.5 -15.833 -10.5 -25.5s-1.5 -19.834 -1.5 -30.501v-833c0 -89.333 -4.5 -165.833 -13.5 -229.5s-26.5 -115.834 -52.5 -156.501s-63 -70.667 -111 -90s-111 -29 -189 -29c-38 0 -73.167 2.33301 -105.5 7
s-63.166 11.334 -92.499 20.001v242c0.666992 0 6.16699 -0.666992 16.5 -2s21.5 -2.66602 33.5 -3.99902s23.167 -2.5 33.5 -3.5s15.833 -1.5 16.5 -1.5c4 -26.667 8.83301 -48.834 14.5 -66.501s13 -31.667 22 -42s19.833 -17.666 32.5 -21.999s27.667 -6.5 45 -6.5
c38.667 4 69.167 15.167 91.5 33.5s39.166 42.5 50.499 72.5s18.333 65.333 21 106s4 85.334 4 134.001v870c0 12.667 -0.5 24 -1.5 34s-4.5 18.5 -10.5 25.5s-15.667 12.333 -29 16s-32.333 5.5 -57 5.5h-102v99h37z" />
    <glyph glyph-name="K" unicode="K" horiz-adv-x="1294" 
d="M864 1133c24 22 35.999 36.667 35.999 44s-6.66699 11.5 -20 12.5s-31 1.5 -53 1.5h-51v99c22 -1.33301 47.5 -2.16602 76.5 -2.49902s57.833 -0.5 86.5 -0.5c15.333 0 30.333 0.166992 45 0.5s28.667 0.5 42 0.5l222 2v-99c-16 0 -30.167 0.166992 -42.5 0.5
s-23.5 0.5 -33.5 0.5c-16.667 0 -31 -1.16699 -43 -3.5s-24.833 -7.16602 -38.5 -14.499s-29.667 -18.333 -48 -33l-70.5 -59l-425 -376l525 -551c14 -15.333 26.667 -26.833 38 -34.5s24 -13 38 -16s30.833 -4.66699 50.5 -5s45.167 -0.5 76.5 -0.5v-99
c-35.333 0 -75.833 0.333008 -121.5 1s-93.5 1 -143.5 1c-23.333 0 -47 -0.166992 -71 -0.5s-47.333 -0.5 -70 -0.5s-44.167 -0.166992 -64.5 -0.5s-38.5 -0.5 -54.5 -0.5v99h108c17.333 0 30 0.333008 38 1s12 3.33398 12 8.00098c0 4 -2.5 9.33301 -7.5 16
s-13.167 16 -24.5 28l-445 471l-66 -55v-404c0 -12 0.5 -22.167 1.5 -30.5s5.33301 -15 13 -20s19.667 -8.66699 36 -11s39.833 -3.5 70.5 -3.5h50v-99c-35.333 0 -75.333 0.333008 -120 1s-92 1 -142 1c-46 0 -92.5 -0.333008 -139.5 -1s-87.5 -1 -121.5 -1v99h49
c30 0 53.167 1.83301 69.5 5.5s28.333 8.5 36 14.5s12.167 13.167 13.5 21.5s2 17.166 2 26.499v949c0 14 -0.833008 25.667 -2.5 35s-6.33398 17 -14.001 23s-19.667 10.333 -36 13s-39.166 4 -68.499 4h-49v99c34 -1.33301 67.167 -2.33301 99.5 -3s64.5 -1 96.5 -1
c10 0 19.833 0.166992 29.5 0.5s19.5 0.5 29.5 0.5h24c13.333 0 29.333 0.166992 48 0.5s38.834 0.666016 60.501 0.999023s42.167 0.666016 61.5 0.999023s36 0.5 50 0.5h26v-99h-52c-30 0 -53.167 -2 -69.5 -6s-28.333 -9.16699 -36 -15.5s-12.167 -13.833 -13.5 -22.5
s-2 -18 -2 -28v-432z" />
    <glyph glyph-name="L" unicode="L" horiz-adv-x="1088" 
d="M56 1290c44.667 -2 94.002 -2.99805 148.002 -2.99805h191.5c63 0 129.833 1 200.5 3v-99h-71c-27.333 0 -48.333 -2.33301 -63 -7s-25.5 -10.834 -32.5 -18.501s-11.167 -16.667 -12.5 -27s-2 -21.166 -2 -32.499v-992h455c16 0 28.333 7.33301 37 22s15 36 19 64
s6.33301 62.167 7 102.5s1 86.166 1 137.499h115v-440h-993v99h51c31.333 0 55.5 2.33301 72.5 7s29.333 11.334 37 20.001s12.167 18.5 13.5 29.5s2 23.167 2 36.5v903c0 5.33301 0.166992 10.666 0.5 15.999s0.5 10.666 0.5 15.999c0 10 -1.16699 19 -3.5 27
s-7.83301 14.667 -16.5 20s-21.334 9.5 -38.001 12.5s-39.334 4.5 -68.001 4.5h-51v99z" />
    <glyph glyph-name="M" unicode="M" horiz-adv-x="1766" 
d="M59 1290c40 -1.33301 81.833 -2.00586 125.5 -2.00586h119.5c3.33301 0 13.833 0.166992 31.5 0.5s36.834 0.5 57.501 0.5s40.167 0.166992 58.5 0.5s29.833 0.5 34.5 0.5l396 -1078c0.666992 3.33301 6.83398 20.833 18.501 52.5l45 123l62.5 170l71.5 193l71.5 193
l63 170l45.5 123.5c11.667 32 18.167 49.667 19.5 53h21c11.333 0 24.666 -0.166992 39.999 -0.5s31.5 -0.666016 48.5 -0.999023s33.167 -0.666016 48.5 -0.999023s28.333 -0.5 39 -0.5h20h53.5c19 0 38 0.166992 57 0.5l55.5 1c18 0.333008 34.667 0.833008 50 1.5v-99
h-62c-26 0 -46.167 -1.5 -60.5 -4.5s-24.833 -7.33301 -31.5 -13s-10.667 -12.834 -12 -21.501s-2 -18.667 -2 -30v-934c0 -21.333 1.5 -38 4.5 -50s8.5 -20.833 16.5 -26.5s19.167 -9.16699 33.5 -10.5s32.833 -2 55.5 -2h61v-99c-23.333 0 -45.833 0.166992 -67.5 0.5
s-44 0.5 -67 0.5s-47.5 0.166992 -73.5 0.5s-55 0.5 -87 0.5c-24.667 0 -46.5 -0.166992 -65.5 -0.5s-36.5 -0.5 -52.5 -0.5s-31.5 -0.166992 -46.5 -0.5s-30.833 -0.5 -47.5 -0.5v99h60c26.667 0 47.5 2.16699 62.5 6.5s26 10.5 33 18.5s11.167 17.5 12.5 28.5
s2 23.167 2 36.5v1011l-91 -238l-362 -962h-113l-76 199l-78.5 210.5l-79.5 213l-78 207.5l-73 194l-66 172v-1015c0 -19.333 1.16699 -34.5 3.5 -45.5s7.16602 -19.167 14.499 -24.5s18 -8.66602 32 -9.99902s32.667 -2 56 -2h60v-99
c-17.333 0 -33.666 0.166992 -48.999 0.5s-31.5 0.5 -48.5 0.5s-35.167 0.166992 -54.5 0.5s-41.333 0.5 -66 0.5c-26.667 0 -51.334 -0.166992 -74.001 -0.5s-44.167 -0.5 -64.5 -0.5s-40.166 -0.166992 -59.499 -0.5s-39 -0.5 -59 -0.5v99h62c30 0 52.5 1.66699 67.5 5
s25.667 8.33301 32 15s9.66602 15.334 9.99902 26.001s0.5 23.334 0.5 38.001l1 936c0 16.667 -2 29.834 -6 39.501s-10.167 16.834 -18.5 21.501s-19.333 7.66699 -33 9s-30.167 2 -49.5 2h-59v99z" />
    <glyph glyph-name="N" unicode="N" horiz-adv-x="1441" 
d="M44 1290l12 -0.00292969h31h41.5c15 0 29.5 -0.166992 43.5 -0.5s26.667 -0.5 38 -0.5h24h45c16.667 0 33.834 0.166992 51.501 0.5s35.167 0.5 52.5 0.5h47l666 -1103h2v932c0 17.333 -2 30.833 -6 40.5s-10.667 16.834 -20 21.501s-22.166 7.5 -38.499 8.5
s-36.833 1.5 -61.5 1.5h-52v99c52.667 0 97 -0.5 133 -1.5s68.667 -1.5 98 -1.5h19h32.5c12.333 0 26 0.166992 41 0.5s29.833 0.5 44.5 0.5c34.667 0.666992 73 1.33398 115 2.00098v-99h-63c-26 0 -46.167 -1.5 -60.5 -4.5s-24.833 -7.5 -31.5 -13.5
s-10.667 -13.333 -12 -22s-2 -18.667 -2 -30v-21.5c0 -14.333 -0.166992 -34.666 -0.5 -60.999s-0.5 -57.833 -0.5 -94.5v-120v-543c0 -98 0.333008 -195 1 -291h-194l-688 1134h-2v-949c0 -18.667 1.83301 -33.167 5.5 -43.5s10.167 -17.833 19.5 -22.5
s22.166 -7.5 38.499 -8.5s37.5 -1.5 63.5 -1.5h54v-99c-18 0 -35.333 0.166992 -52 0.5s-33.834 0.5 -51.501 0.5s-36.5 0.166992 -56.5 0.5s-42.667 0.5 -68 0.5c-27.333 0 -52.5 -0.166992 -75.5 -0.5s-45 -0.5 -66 -0.5s-41.667 -0.166992 -62 -0.5
s-40.833 -0.5 -61.5 -0.5v99h64c28 0 49.667 1.33301 65 4s26.5 7.33398 33.5 14.001s11 15.167 12 25.5s1.5 23.166 1.5 38.499v928c0 20 -1.33301 35.5 -4 46.5s-7.83398 19.167 -15.501 24.5s-18.667 8.5 -33 9.5s-33.166 1.5 -56.499 1.5h-62v22
c0 8.66699 0.166992 17.667 0.5 27s0.5 18.5 0.5 27.5v22.5z" />
    <glyph glyph-name="O" unicode="O" horiz-adv-x="1528" 
d="M765 1315c100.667 0 191.835 -16.1631 273.502 -48.4961s151 -77.833 208 -136.5s101 -129 132 -211s46.5 -173 46.5 -273c0 -99.333 -15.333 -190 -46 -272s-74.334 -152.5 -131.001 -211.5s-125.334 -104.833 -206.001 -137.5s-170.667 -49 -270 -49
c-103.333 0 -196.166 16 -278.499 48s-152.333 77.167 -210 135.5s-101.834 128.666 -132.501 210.999s-46 174.166 -46 275.499c0 100 15.333 191.167 46 273.5s74.5 152.666 131.5 210.999s126.333 103.666 208 135.999s173.167 48.5 274.5 48.5zM764.001 1202
c-72 0 -136.666 -12.998 -193.999 -38.998s-105.833 -63 -145.5 -111s-70.167 -106.333 -91.5 -175s-32 -145.334 -32 -230.001c0 -85.333 10.667 -162.333 32 -231s52 -127 92 -175s88.667 -84.833 146 -110.5s121.666 -38.5 192.999 -38.5c72 0 136.5 12.833 193.5 38.5
s105.5 62.5 145.5 110.5s70.667 106.167 92 174.5s32 145.166 32 230.499c0 86 -10.667 163.333 -32 232s-52 127 -92 175s-88.5 84.833 -145.5 110.5s-121.5 38.5 -193.5 38.5z" />
    <glyph glyph-name="P" unicode="P" horiz-adv-x="1166" 
d="M644 1290c82 0 152.667 -8.99902 212 -26.999s108.333 -43.333 147 -76s67.334 -71.834 86.001 -117.501s28 -95.834 28 -150.501s-8.66699 -104.5 -26 -149.5s-44.833 -83.667 -82.5 -116s-86.334 -57.5 -146.001 -75.5s-131.834 -27 -216.501 -27h-232v-375
c0 -18.667 2 -33.167 6 -43.5s11 -18 21 -23s23 -8 39 -9s36 -1.5 60 -1.5h51v-99c-18 0 -35.333 0.166992 -52 0.5s-33.834 0.5 -51.501 0.5s-36.667 0.166992 -57 0.5s-43.5 0.5 -69.5 0.5c-61.333 0 -116 -0.333008 -164 -1s-95.333 -1 -142 -1v99h52
c30.667 0 54.334 1.83301 71.001 5.5s29 8.83398 37 15.501s12.667 15 14 25s2 21.667 2 35v946c0 15.333 -2 27.333 -6 36s-12.167 15.167 -24.5 19.5s-30.166 7 -53.499 8s-54 1.5 -92 1.5v99h589zM414 654.001h190.999c112.667 0 196.167 21.5 250.5 64.5
s81.5 108.833 81.5 197.5c0 43.333 -6 81.666 -18 114.999s-31 61.333 -57 84s-59.667 39.834 -101 51.501s-91.666 17.5 -150.999 17.5h-196v-530z" />
    <glyph glyph-name="Q" unicode="Q" horiz-adv-x="1528" 
d="M764 92c71.333 0 135.5 13 192.5 39s105.5 63.167 145.5 111.5s70.833 106.833 92.5 175.5s32.5 145.334 32.5 230.001c0 85.333 -10.833 162.166 -32.5 230.499s-52.5 126.5 -92.5 174.5s-88.5 84.833 -145.5 110.5s-121.167 38.5 -192.5 38.5
c-72 0 -136.667 -13.167 -194 -39.5s-105.833 -63.5 -145.5 -111.5s-70.167 -106 -91.5 -174s-32 -144 -32 -228s10.5 -160.333 31.5 -229s51.5 -127.167 91.5 -175.5s88.667 -85.833 146 -112.5s122 -40 194 -40zM1244 -279c-44 3.33301 -83.833 9.83301 -119.5 19.5
s-69 20.834 -100 33.501s-60.667 26.5 -89 41.5l-85.5 44.5c-28.667 14.667 -58.5 28.5 -89.5 41.5s-65.167 24.167 -102.5 33.5c-15.333 0 -30.5 -2.16699 -45.5 -6.5s-28.5 -10.833 -40.5 -19.5c-5.33301 6.66699 -10.166 13 -14.499 19s-9.16602 12.333 -14.499 19
c15.333 13.333 33 22.666 53 27.999s40.667 9 62 11c-88 13.333 -166.333 38.333 -235 75s-126.5 83.167 -173.5 139.5s-82.833 122 -107.5 197s-37 157.5 -37 247.5c0 100 15.333 191.167 46 273.5s74.667 152.833 132 211.5s126.833 104.167 208.5 136.5
s173.5 48.5 275.5 48.5c100 0 190.667 -16.167 272 -48.5s150.5 -77.833 207.5 -136.5s101 -129.167 132 -211.5s46.5 -173.166 46.5 -272.499c0 -90 -13 -173.333 -39 -250s-63.333 -144 -112 -202s-107.334 -105 -176.001 -141s-145.667 -58.667 -231 -68
c1.33301 -0.666992 2.83301 -1.33398 4.5 -2.00098s3.16699 -1 4.5 -1c36 -14.667 69.5 -30 100.5 -46s63.167 -31.333 96.5 -46s69.666 -28 108.999 -40s85.333 -21 138 -27l-34 -104c-7.33301 0.666992 -14.333 1 -21 1s-13.667 0.333008 -21 1z" />
    <glyph glyph-name="R" unicode="R" horiz-adv-x="1327" 
d="M1009 349c10 -44 19.333 -82.002 28 -114.002s18 -58.167 28 -78.5s21.333 -35.5 34 -45.5s28.334 -15 47.001 -15c10 0 20 1.16699 30 3.5s19 7 27 14s14.5 16.833 19.5 29.5s7.5 29 7.5 49l101 9c0 -69.333 -19 -124.166 -57 -164.499s-91.667 -60.5 -161 -60.5
c-48.667 0 -88.667 10 -120 30s-57.666 48 -78.999 84s-39.833 79 -55.5 129s-31.834 105.333 -48.501 166c-12 43.333 -28 82 -48 116s-39.333 64.667 -58 92c-20 7.33301 -43.333 12.666 -70 15.999s-57 5 -91 5h-132v-463c0 -13.333 2 -23.5 6 -30.5s10.833 -12 20.5 -15
s22.667 -4.83301 39 -5.5s36.5 -1 60.5 -1h52v-99h-59h-59.5c-20.333 0 -42 0.166992 -65 0.5s-48.167 0.833008 -75.5 1.5c-29.333 0 -56.666 -0.166992 -81.999 -0.5s-49.333 -0.5 -72 -0.5s-44.667 -0.166992 -66 -0.5s-42.666 -0.5 -63.999 -0.5v99h50
c33.333 0 59 1.33301 77 4s31.167 6.66699 39.5 12s13.166 12 14.499 20s2 17.333 2 28v964c0 15.333 -1.33301 27.333 -4 36s-10 15 -22 19s-30.167 6.5 -54.5 7.5s-58.5 1.5 -102.5 1.5v99h551c72.667 0 140.5 -4.5 203.5 -13.5s117.5 -25.667 163.5 -50
s82.167 -58.166 108.5 -101.499s39.5 -99 39.5 -167c0 -80 -24.5 -146.667 -73.5 -200s-118.833 -89.666 -209.5 -108.999c20 -15.333 38.667 -31.5 56 -48.5s33.666 -37 48.999 -60s29.166 -50 41.499 -81s23.5 -67.833 33.5 -110.5zM411 710.998l218 -0.00195312
c54 0 100.167 4.33301 138.5 13s69.5 22.334 93.5 41.001s41.667 43 53 73s17 66.333 17 109c0 48.667 -8 88.334 -24 119.001s-39.5 54.5 -70.5 71.5s-69.167 28.667 -114.5 35s-97.333 9.5 -156 9.5h-155v-471z" />
    <glyph glyph-name="S" unicode="S" horiz-adv-x="1135" 
d="M986 941l-117.002 -0.00195312c-0.666992 7.33301 -1.16699 14.333 -1.5 21s-0.5 13.334 -0.5 20.001c-1.33301 34.667 -9.66602 66 -24.999 94s-36.833 51.667 -64.5 71s-60.5 34.333 -98.5 45s-80.333 16 -127 16c-42 0 -79.833 -5.16699 -113.5 -15.5
s-62.167 -24.833 -85.5 -43.5s-41.166 -40.834 -53.499 -66.501s-18.5 -53.5 -18.5 -83.5c0 -32 6.33301 -59.667 19 -83s30 -44 52 -62s48.167 -33.833 78.5 -47.5s63.166 -26.667 98.499 -39l112 -37.5c39.333 -12.667 79 -26.334 119 -41.001
c41.333 -16 79.166 -34.167 113.499 -54.5s63.833 -44.166 88.5 -71.499s43.834 -58.5 57.501 -93.5s20.5 -75.167 20.5 -120.5c0 -52.667 -10.167 -101.667 -30.5 -147s-49 -84.833 -86 -118.5s-81.667 -60 -134 -79s-110.5 -28.5 -174.5 -28.5
c-90 0 -167.5 12.5 -232.5 37.5s-115.167 59.5 -150.5 103.5v-117h-132v408h120c0 -48 6.33301 -91.667 19 -131s32.667 -73 60 -101s62.5 -49.667 105.5 -65s94.833 -23 155.5 -23c44 0 84.333 5.66699 121 17s68.167 27.5 94.5 48.5s46.833 46.333 61.5 76
s22 62.834 22 99.501c0 48 -13 87.167 -39 117.5s-60.333 56.166 -103 77.499s-91.167 40.5 -145.5 57.5s-109.5 36.167 -165.5 57.5c-49.333 18.667 -92.666 38.834 -129.999 60.501s-68.5 45.834 -93.5 72.501s-43.833 56.667 -56.5 90s-19 71 -19 113
c0 47.333 9.33301 91.666 28 132.999s45.667 77.166 81 107.499s78.333 54.333 129 72s108 26.5 172 26.5c32.667 0 64.167 -1.66699 94.5 -5s59.666 -9.16602 87.999 -17.499s55.833 -19.666 82.5 -33.999s53.334 -32.833 80.001 -55.5v83c16 0 35.333 -0.166992 58 -0.5
s44.667 -0.5 66 -0.5v-343z" />
    <glyph glyph-name="T" unicode="T" horiz-adv-x="1221" 
d="M47 1290l23.4971 -0.503906c15.667 -0.333008 36 -0.5 61 -0.5s52.833 -0.166992 83.5 -0.5s60.834 -0.5 90.501 -0.5h82h59.5h386c22.667 0 49.167 0.166992 79.5 0.5s61.166 0.5 92.499 0.5s61.833 0.166992 91.5 0.5s55.834 0.5 78.501 0.5v-386h-106v206
c0 14 -1 25.333 -3 34s-8.16699 15.334 -18.5 20.001s-26.5 7.83398 -48.5 9.50098s-53 2.5 -93 2.5h-202v-1019c0 -11.333 0.666992 -20.666 2 -27.999s6 -13.166 14 -17.499s20.333 -7.5 37 -9.5s40.334 -3 71.001 -3h56v-99h-57h-58.5c-20.333 0 -42 0.166992 -65 0.5
s-48.5 0.833008 -76.5 1.5h-22c-12 0 -26.5 -0.166992 -43.5 -0.5s-35.667 -0.5 -56 -0.5s-40.666 -0.166992 -60.999 -0.5s-39.5 -0.5 -57.5 -0.5h-45v99h55c31.333 0 55.5 1.83301 72.5 5.5s29.333 8.66699 37 15s12.167 13.666 13.5 21.999s2 17.166 2 26.499v1008h-217
c-37.333 0 -66.333 -1.16699 -87 -3.5s-36 -5.66602 -46 -9.99902s-16 -10 -18 -17s-3 -15.167 -3 -24.5v-50.5c0 -18.333 0.166992 -37.166 0.5 -56.499s0.5 -38.5 0.5 -57.5v-52.5h-105v386z" />
    <glyph glyph-name="U" unicode="U" horiz-adv-x="1351" 
d="M24 1290c46 -1.33301 95.167 -1.99805 147.5 -1.99805h151.5h106c34.667 0 71.334 0.666992 110.001 2v-99h-47c-30 0 -53.333 -1.66699 -70 -5s-28.834 -7.83301 -36.501 -13.5s-12.167 -12.334 -13.5 -20.001s-2 -15.834 -2 -24.501v-633
c0 -69.333 5.16699 -129.333 15.5 -180s28 -92.334 53 -125.001s58.5 -56.834 100.5 -72.501s94.667 -23.5 158 -23.5c68 0 123 8.66699 165 26s74.5 42.833 97.5 76.5s38.5 74.834 46.5 123.501s12 104.334 12 167.001v636c0 12.667 -0.666992 23.334 -2 32.001
s-6 15.667 -14 21s-20.667 9.16602 -38 11.499s-42.333 3.5 -75 3.5h-48v99c23.333 -1.33301 49.166 -2 77.499 -2h85.5c20 0 38.667 0.166992 56 0.5s37.5 0.5 60.5 0.5s50.667 0.166992 83 0.5s73.5 0.5 123.5 0.5v-99h-51c-28.667 0 -50.5 -1.83301 -65.5 -5.5
s-26 -8.5 -33 -14.5s-11 -12.667 -12 -20s-1.5 -15 -1.5 -23v-635c0 -87.333 -8.5 -163.5 -25.5 -228.5s-44.5 -118.833 -82.5 -161.5s-87.5 -74.5 -148.5 -95.5s-135.167 -31.5 -222.5 -31.5c-95.333 0 -174.833 10.667 -238.5 32s-114.5 53.5 -152.5 96.5
s-65 96.5 -81 160.5s-24 139 -24 225v644c0 10.667 -0.666992 19.5 -2 26.5s-5.66602 12.833 -12.999 17.5s-18.833 8 -34.5 10s-37.5 3 -65.5 3h-50v99z" />
    <glyph glyph-name="V" unicode="V" horiz-adv-x="1342" 
d="M335 1088c0 -1.33301 3.50098 -10.8359 10.501 -28.5029l28 -71.5l40.5 -104.5l49 -126l53.5 -136.5l53.5 -136.5l49 -126l40.5 -104l28 -71.5c7 -18 10.5 -27.333 10.5 -28l341 930c6 16.667 10.833 30.667 14.5 42s5.5 21 5.5 29c0 16 -8 25.833 -24 29.5
s-42.333 5.5 -79 5.5h-62v99c34.667 -0.666992 67.334 -1.33398 98.001 -2.00098c26 -0.666992 51.667 -1 77 -1h55c36.667 0 74.5 0.333008 113.5 1l118.5 2v-99c-22.667 0 -41.834 -0.666992 -57.501 -2s-29.667 -4.83301 -42 -10.5s-23.333 -14.167 -33 -25.5
s-19.5 -27.166 -29.5 -47.499s-20.833 -45.666 -32.5 -75.999l-41.5 -110.5l-348 -932h-178l-433 1086c-11.333 27.333 -20.833 48.833 -28.5 64.5s-17.334 27.5 -29.001 35.5s-26.5 13 -44.5 15s-42.333 3 -73 3v99c24 -1.33301 50.333 -2.33301 79 -3s55 -1 79 -1h37
c14.667 0 30.834 0.166992 48.501 0.5l55 1c19 0.333008 37.833 0.5 56.5 0.5c43.333 0.666992 89 1.33398 137 2.00098v-99c-26.667 0 -49.834 -0.166992 -69.501 -0.5s-36 -2 -49 -5s-22.667 -7.66699 -29 -14s-9.5 -15.166 -9.5 -26.499
c0 -14.667 4.66699 -33.667 14 -57z" />
    <glyph glyph-name="W" unicode="W" horiz-adv-x="1906" 
d="M163 1055c-9.33301 32.667 -17.3301 58.1699 -23.9971 76.5029s-15.5 32 -26.5 41s-25.667 14.333 -44 16s-44.166 2.5 -77.499 2.5c-0.666992 14.667 -1 28.334 -1 41.001v58c39.333 -0.666992 75.666 -1.33398 108.999 -2.00098c14 0 28.333 -0.166992 43 -0.5
s28.5 -0.5 41.5 -0.5h35h24.5c28.667 0 62.667 0.5 102 1.5s82.666 1.5 129.999 1.5v-99c-28 0 -52 -0.5 -72 -1.5s-36.333 -3.33301 -49 -7s-21.834 -9.33398 -27.501 -17.001s-8.5 -17.834 -8.5 -30.501c0 -9.33301 1.33301 -19.5 4 -30.5l10 -39.5l60.5 -222l63.5 -236
l63.5 -236l60.5 -222l286 1126h188l306 -1128l247 924c4 15.333 7.33301 28.666 10 39.999s4.33398 21.666 5.00098 30.999c0 10.667 -2.5 19.334 -7.5 26.001s-13.833 11.667 -26.5 15s-29.334 5.5 -50.001 6.5s-46.334 1.5 -77.001 1.5v99c48.667 0 93 -0.333008 133 -1
s74 -1 102 -1h108.5c39 0 77.5 0.666992 115.5 2v-99c-30.667 0 -55.334 -0.833008 -74.001 -2.5s-34.167 -6.66699 -46.5 -15s-22.666 -21.333 -30.999 -39s-17.166 -42.5 -26.499 -74.5c-0.666992 -2 -5.33398 -18.167 -14.001 -48.5l-33.5 -118.5l-46.5 -165l-54 -189.5
l-54.5 -191.5l-48.5 -170.5l-36.5 -127.5l-17.5 -62h-180l-300 1154l-299 -1154h-186z" />
    <glyph glyph-name="X" unicode="X" horiz-adv-x="1406" 
d="M33 1290c28.667 -1.33301 55.499 -2.16309 80.499 -2.49609l75 -1c25 -0.333008 51 -0.5 78 -0.5h90.5c30 0 62.833 0.666992 98.5 2s72.5 2 110.5 2v-99h-56c-31.333 0 -54.833 -1.33301 -70.5 -4s-23.5 -10 -23.5 -22c0 -8.66699 4.33301 -20 13 -34
s21.334 -31.667 38.001 -53l236 -311c0 0.666992 4.33301 7 13 19l34.5 47l48.5 65.5l54.5 74l52.5 72.5l43 61l27.5 39.5c7 9.66699 10.5 16.167 10.5 19.5c0 4.66699 -2.5 8.66699 -7.5 12s-13.5 6 -25.5 8s-27.833 3.5 -47.5 4.5s-44.5 1.5 -74.5 1.5v99
c4 0 12.667 -0.166992 26 -0.5s28.833 -0.833008 46.5 -1.5s36.667 -1.16699 57 -1.5s39.5 -0.5 57.5 -0.5c30 0 58.333 0.166992 85 0.5l78.5 1c25.667 0.333008 51.334 0.833008 77.001 1.5s52.167 1 79.5 1l-1 -96c-34 0 -62.333 -1 -85 -3s-41.834 -6 -57.501 -12
s-29 -14.167 -40 -24.5s-21.833 -23.833 -32.5 -40.5l-14.5 -19.5l-38 -50.5l-53.5 -70.5l-61 -81.5l-166 -222l318 -413c24.667 -32.667 45.5 -59.334 62.5 -80.001s34.5 -36.834 52.5 -48.501s38.667 -19.667 62 -24s53.666 -6.5 90.999 -6.5v-98
c-21.333 0 -42 0.166992 -62 0.5s-40.5 0.5 -61.5 0.5s-43.333 0.166992 -67 0.5s-49.834 0.5 -78.501 0.5c-29.333 0 -56.333 -0.166992 -81 -0.5s-48 -0.5 -70 -0.5s-43.5 -0.166992 -64.5 -0.5s-42.5 -0.5 -64.5 -0.5c0 16 -0.166992 32.167 -0.5 48.5
s-0.5 32.833 -0.5 49.5c53.333 0 92 2.83301 116 8.5s36 16.5 36 32.5c0 10.667 -5.66699 24.5 -17 41.5s-25.666 37.167 -42.999 60.5l-236 311l-224 -304c-22.667 -30.667 -39.834 -55.167 -51.501 -73.5s-17.5 -32.833 -17.5 -43.5
c0 -16.667 13.167 -26.334 39.5 -29.001s67.5 -4 123.5 -4v-98c-7.33301 0 -22.166 0.166992 -44.499 0.5s-47.833 0.5 -76.5 0.5s-58 0.166992 -88 0.5s-56 0.5 -78 0.5c-22.667 0 -43.667 -0.166992 -63 -0.5s-38.166 -0.5 -56.499 -0.5s-37 -0.166992 -56 -0.5
s-39.5 -0.5 -61.5 -0.5v99c26.667 0 49.667 0.666992 69 2s37.5 5.66602 54.5 12.999s34.333 19 52 35s38.167 39 61.5 69l329 430l-299 392c-28.667 37.333 -51.667 66.166 -69 86.499s-34.333 35.333 -51 45s-35.5 15.334 -56.5 17.001s-49.5 2.5 -85.5 2.5v99z" />
    <glyph glyph-name="Y" unicode="Y" horiz-adv-x="1259" 
d="M-7 1290c19.333 -1.33301 41.498 -2.16797 66.498 -2.50098s47.833 -0.5 68.5 -0.5c28 0 55.333 0.166992 82 0.5s54.834 0.666016 84.501 0.999023s61.667 0.666016 96 0.999023s73.5 0.5 117.5 0.5v-99h-38c-44 0 -75.667 -1.16699 -95 -3.5s-29 -10.166 -29 -23.499
c1.33301 -9.33301 6 -21.5 14 -36.5s18.667 -33.167 32 -54.5c0.666992 -1.33301 7.5 -12.166 20.5 -32.499l47.5 -75.5l60.5 -96.5l60.5 -96.5l47 -75.5c12.667 -20.333 19.334 -31.166 20.001 -32.499l255 403c15.333 24.667 27.333 44.667 36 60s13 27.666 13 36.999
c0 13.333 -12.167 21.166 -36.5 23.499s-64.5 3.5 -120.5 3.5v99c38.667 -0.666992 75.334 -1 110.001 -1c14.667 0 29.667 -0.166992 45 -0.5s29.833 -0.5 43.5 -0.5h37h27.5h97.5c33 0 69.5 0.666992 109.5 2v-99c-30 0 -53.667 -0.5 -71 -1.5s-31.5 -4 -42.5 -9
s-20.833 -12.833 -29.5 -23.5s-19.334 -25.334 -32.001 -44.001l-58.5 -87.5l-76 -115l-81.5 -124l-74.5 -114l-55.5 -86c-14.667 -23 -23 -35.833 -25 -38.5v-385c0 -13.333 1.16699 -24.166 3.5 -32.499s7.83301 -14.833 16.5 -19.5s21.5 -7.83398 38.5 -9.50098
s40.5 -2.5 70.5 -2.5h54v-99h-125c-42 0 -91.667 0.666992 -149 2c-51.333 0 -99.5 -0.333008 -144.5 -1s-85.833 -1 -122.5 -1v99h53c32 0 56.667 1.5 74 4.5s29.833 7.33301 37.5 13s12.167 12.167 13.5 19.5s2 15.666 2 24.999v389l-17 26.5l-39 60l-53.5 82l-60 93
l-60 93l-53.5 82l-39 60l-17 26.5c-18 28.667 -32.833 50.834 -44.5 66.501s-24.167 27.334 -37.5 35.001s-29.5 12.334 -48.5 14.001s-44.833 2.5 -77.5 2.5c0 16.667 -0.166992 33.334 -0.5 50.001s-0.5 33 -0.5 49z" />
    <glyph glyph-name="Z" unicode="Z" horiz-adv-x="1147" 
d="M1061 1288l-0.00292969 -136.002l-809 -1042h655c16 0 28.5 3.33301 37.5 10s15.833 19.334 20.5 38.001s7.5 44.167 8.5 76.5s1.5 74.5 1.5 126.5h113v-361h-1029v134l809 1045h-508c-35.333 0 -63.666 -0.333008 -84.999 -1s-37.666 -3.16699 -48.999 -7.5
s-18.666 -11.166 -21.999 -20.499s-5 -22.333 -5 -39v-165h-111v342h973z" />
    <glyph glyph-name="bracketleft" unicode="[" horiz-adv-x="695" 
d="M645 1290v-112h-281v-1357h280v-113h-446v1582h447z" />
    <glyph glyph-name="backslash" unicode="\" horiz-adv-x="559" 
d="M99 1304l497 -1409h-124l-497 1409h124z" />
    <glyph glyph-name="bracketright" unicode="]" horiz-adv-x="695" 
d="M496 1290v-1582h-448v113h282v1357h-282v112h448z" />
    <glyph glyph-name="asciicircum" unicode="^" horiz-adv-x="1700" 
d="M1386 850l-98 -24l-439 437l-441 -437l-95 24l482 553h134z" />
    <glyph glyph-name="underscore" unicode="_" horiz-adv-x="1024" 
d="M1030 -361h-1036v110h1036v-110z" />
    <glyph glyph-name="grave" unicode="`" 
d="M582 1029l-83 -0.000976562c-15.333 13.333 -33.333 28.166 -54 44.499l-65 51l-68 53.5c-22.667 18 -43 35.833 -61 53.5s-32.833 34.334 -44.5 50.001s-18.167 29.834 -19.5 42.501c0 10.667 7.33301 19.667 22 27s32 11 52 11c18 0 35.833 -3 53.5 -9
s30.167 -13.667 37.5 -23z" />
    <glyph glyph-name="a" unicode="a" horiz-adv-x="1060" 
d="M896 224c0 -34.667 1.16797 -61.1689 3.50098 -79.502s6.83301 -31.666 13.5 -39.999s16.167 -13 28.5 -14s28.5 -1.5 48.5 -1.5h45v-89c-52.667 0 -104.834 -0.333008 -156.501 -1s-99.834 -1.66699 -144.501 -3v137c-40 -51.333 -87.5 -89.833 -142.5 -115.5
s-119.167 -38.5 -192.5 -38.5c-48 0 -91.333 6.83301 -130 20.5s-71.667 32.5 -99 56.5s-48.5 52.667 -63.5 86s-22.5 70 -22.5 110c0 42.667 8.66699 81.5 26 116.5s42.666 64.833 75.999 89.5s73.833 43.834 121.5 57.501s102.167 20.5 163.5 20.5
c42 0 84.333 -3.16699 127 -9.5s86 -15.166 130 -26.499v144c0 60.667 -20.167 107 -60.5 139s-102.166 48 -185.499 48c-70 0 -124.833 -13.5 -164.5 -40.5s-66.167 -68.833 -79.5 -125.5l-92 11l13 176c42.667 19.333 92.5 35.166 149.5 47.499s121.167 18.5 192.5 18.5
c70.667 0 131 -6.33301 181 -19s90.833 -32 122.5 -58s54.834 -59.167 69.501 -99.5s22 -87.833 22 -142.5v-375zM509.001 451.998c-40 0 -76.002 -4.49805 -108.002 -13.498s-59.167 -21.833 -81.5 -38.5s-39.5 -37 -51.5 -61s-18 -51.333 -18 -82
c0 -27.333 4.83301 -51.5 14.5 -72.5s23.334 -38.833 41.001 -53.5s38.834 -26.334 63.501 -35.001s51.667 -12.667 81 -12c32 -0.666992 64.5 4.16602 97.5 14.499s62.833 25 89.5 44s48.5 43 65.5 72s25.5 63.833 25.5 104.5v98c-40 11.333 -78 20 -114 26s-71 9 -105 9z
" />
    <glyph glyph-name="b" unicode="b" horiz-adv-x="1215" 
d="M691 -21c-75.333 0 -141.165 14.333 -197.498 43s-104.5 72 -144.5 130l-1 -156c-21.333 0.666992 -46.5 1.16699 -75.5 1.5l-87.5 1c-29.333 0.333008 -56.833 0.666016 -82.5 0.999023s-45.834 0.5 -60.501 0.5v89c36.667 0 65 1.33301 85 4s34.5 7 43.5 13
s14.333 13.333 16 22s2.5 19 2.5 31v989c0 13.333 -3 23.5 -9 30.5s-15.167 12.167 -27.5 15.5s-27.833 5.33301 -46.5 6s-40.334 1.33398 -65.001 2.00098v91c58 0 113.333 0.333008 166 1s103 1.66699 151 3l2 -540c38 51.333 84.667 91 140 119s118.333 42 189 42
c66 0 126 -11.333 180 -34s100.167 -54.667 138.5 -96s68 -90.5 89 -147.5s31.5 -121.5 31.5 -193.5c0 -70 -10.333 -133.667 -31 -191s-50 -106.5 -88 -147.5s-84 -72.833 -138 -95.5s-114 -34 -180 -34zM655.001 814c-47.333 0 -89.8311 -8.66602 -127.498 -25.999
s-69.667 -41.166 -96 -71.499s-46.5 -68.333 -60.5 -114s-21 -97.167 -21 -154.5c0 -56.667 7 -107.334 21 -152.001s34 -82.667 60 -114s57.667 -55.5 95 -72.5s79.666 -25.5 126.999 -25.5c46 0 87.667 8.66699 125 26s69.166 42.166 95.499 74.499s46.5 71 60.5 116
s21 95.833 21 152.5c0 56 -7.16699 105.667 -21.5 149s-34.5 81 -60.5 113s-57.5 56.5 -94.5 73.5s-78.167 25.5 -123.5 25.5z" />
    <glyph glyph-name="c" unicode="c" horiz-adv-x="1011" 
d="M912 576l-98 -0.00585938c-3.33301 80.667 -27.166 140.5 -71.499 179.5s-105.5 58.5 -183.5 58.5c-47.333 0 -89.666 -8.5 -126.999 -25.5s-68.833 -41.167 -94.5 -72.5s-45.334 -69.666 -59.001 -114.999s-20.5 -96.333 -20.5 -153c0 -57.333 7 -107.5 21 -150.5
s34.167 -80.667 60.5 -113s58.166 -57.166 95.499 -74.499s79.333 -26 126 -26c66.667 0 122.5 16.333 167.5 49s76.5 81.667 94.5 147l117 -20c-10.667 -46 -27.5 -86.833 -50.5 -122.5s-51.5 -64.5 -85.5 -86.5s-73 -39.5 -117 -52.5s-92.333 -19.5 -145 -19.5
c-70 0 -133.333 11.167 -190 33.5s-105 52.833 -145 91.5s-71 86.834 -93 144.501s-33 121.834 -33 192.501c0 66.667 10.667 128.834 32 186.501s51.5 107.834 90.5 150.501s85.333 76.667 139 102s113.167 38 178.5 38c26.667 0 53 -1.66699 79 -5s50.833 -9 74.5 -17
s45.667 -19 66 -33s38.5 -31.333 54.5 -52l25 79c2.66699 0 8.5 -0.166992 17.5 -0.5s18.5 -0.5 28.5 -0.5s19.5 -0.166992 28.5 -0.5s14.833 -0.5 17.5 -0.5v-312z" />
    <glyph glyph-name="d" unicode="d" horiz-adv-x="1198" 
d="M1015 128c0 -8.66699 2.16504 -15.665 6.49805 -20.998s12 -9.33301 23 -12s26 -4.33398 45 -5.00098s43.167 -1 72.5 -1v-89c-52 0 -104.167 -0.333008 -156.5 -1s-102.166 -1.66699 -149.499 -3v21v46c0 17.333 -0.166992 34.5 -0.5 51.5s-0.833008 29.5 -1.5 37.5
c-38 -56.667 -85.5 -99.667 -142.5 -129s-122.833 -44 -197.5 -44c-65.333 0 -124.833 11.167 -178.5 33.5s-99.5 53.833 -137.5 94.5s-67.333 89.667 -88 147s-31 121 -31 191c0 71.333 10.5 136.166 31.5 194.499s50.833 107.833 89.5 148.5s84.834 72.5 138.501 95.5
s113.167 34.5 178.5 34.5c72 0 135.667 -14.167 191 -42.5s101 -68.5 137 -120.5l2 408c0 10 -2.83301 17.5 -8.5 22.5s-15 8.83301 -28 11.5s-29.833 4.16699 -50.5 4.5s-45.667 0.5 -75 0.5v91c58.667 0 116.167 0.333008 172.5 1s108.833 1.66699 157.5 3v-1169z
M548.998 814.002c-44.667 0 -85.334 -8.83594 -122.001 -26.5029s-68.167 -42 -94.5 -73s-46.666 -69.167 -60.999 -114.5s-21.5 -96 -21.5 -152c0 -55.333 7.16699 -105.166 21.5 -149.499s34.5 -82.666 60.5 -114.999s57.667 -57 95 -74s79 -25.5 125 -25.5
c46.667 0 88.667 8.33301 126 25s69 41.167 95 73.5s45.833 70.5 59.5 114.5s20.5 93.667 20.5 149c0 56 -7.33301 106.667 -22 152s-35.334 83.833 -62.001 115.5s-58.667 56.334 -96 74.001s-78.666 26.5 -123.999 26.5z" />
    <glyph glyph-name="e" unicode="e" horiz-adv-x="1099" 
d="M961 417l-707.999 -0.00292969c0.666992 -53.333 9 -100.333 25 -141s38.667 -75.167 68 -103.5s64.5 -50.166 105.5 -65.499s86.5 -23 136.5 -23c70 0 130.667 14.333 182 43s91 73 119 133l121 -19c-30.667 -84.667 -84.5 -149.5 -161.5 -194.5
s-171.5 -67.5 -283.5 -67.5c-75.333 0 -143 11.333 -203 34s-110.833 54.667 -152.5 96s-73.5 89.833 -95.5 145.5s-33 119.167 -33 190.5c0 72 11.333 136.833 34 194.5s54.667 107.167 96 148.5s91.166 73.333 149.499 96s123.166 34 194.499 34
c72 0 136.667 -10.833 194 -32.5s106 -53.167 146 -94.5s70.833 -91.666 92.5 -150.999s32.834 -127.666 33.501 -204.999zM859.001 506.997c-8 100.667 -38 177 -90 229s-122.667 78 -212 78c-42 0 -80.333 -7.16699 -115 -21.5s-65 -34.333 -91 -60
s-47.167 -57.167 -63.5 -94.5s-27.5 -81 -33.5 -131h605z" />
    <glyph glyph-name="f" unicode="f" horiz-adv-x="610" 
d="M722 1096l-79.998 -7.99902c-6.66699 42 -20.834 74.167 -42.501 96.5s-51.5 33.5 -89.5 33.5c-32.667 0 -58.334 -5.5 -77.001 -16.5s-32.5 -27.167 -41.5 -48.5s-14.667 -47.833 -17 -79.5s-3.5 -67.834 -3.5 -108.501v-70h217v-89h-217v-651
c0 -16.667 3.33301 -29.5 10 -38.5s17 -15.5 31 -19.5s31.667 -6.33301 53 -7s46.666 -1 75.999 -1v-89c-29.333 -0 -59 0.333008 -89 1c-26 0 -54.333 0.166992 -85 0.5s-60.334 0.5 -89.001 0.5c-23.333 0 -47.666 -0.166992 -72.999 -0.5s-48.666 -0.5 -69.999 -0.5
c-25.333 -0.666992 -50 -1 -74 -1v89c34 0 60.5 1 79.5 3s33 5.5 42 10.5s14.5 12 16.5 21s3 20.167 3 33.5v649h-150v89h150v116c0 106.667 25.5 184 76.5 232s123.833 72 218.5 72c40 0 79.5 -2.83301 118.5 -8.5s74.5 -14.167 106.5 -25.5v-185z" />
    <glyph glyph-name="g" unicode="g" horiz-adv-x="1189" 
d="M558 814c-45.333 0 -86.6641 -8.5 -123.997 -25.5s-69.166 -41.167 -95.499 -72.5s-46.666 -69.833 -60.999 -115.5s-21.5 -95.5 -21.5 -149.5s7.16699 -102.5 21.5 -145.5s34.666 -79.833 60.999 -110.5s58.166 -54.167 95.499 -70.5s79.333 -24.5 126 -24.5
c46 0 87.667 8.66699 125 26s69.166 41.666 95.499 72.999s46.833 69 61.5 113s22 93 22 147c0 52 -7.33301 99.833 -22 143.5s-35.334 81.334 -62.001 113.001s-58.834 56 -96.501 73s-79.5 25.5 -125.5 25.5zM871.002 899c30 -1.33301 59.667 -2.49805 89 -3.49805
s59 -1.5 89 -1.5c26 0 48.833 0.166992 68.5 0.5s39.167 0.5 58.5 0.5v-89c-36.667 0 -65.167 -1.16699 -85.5 -3.5s-35.333 -6.33301 -45 -12s-15.5 -13.334 -17.5 -23.001s-3 -22.167 -3 -37.5v-668c0 -93.333 -11.167 -171.333 -33.5 -234s-54.333 -112.834 -96 -150.501
s-92.334 -64.334 -152.001 -80.001s-127.167 -23.5 -202.5 -23.5c-70.667 0 -137.667 7.5 -201 22.5s-122.333 38.167 -177 69.5l8 210c1.33301 -0.666992 7 -1 17 -1h23.5c9 0 17.167 0.333008 24.5 1c8.66699 0 17.667 0.333008 27 1c6 -40 16.5 -73 31.5 -99
s34.333 -46.667 58 -62s51.334 -26.166 83.001 -32.499s67.167 -9.5 106.5 -9.5c42 0 82.167 5.5 120.5 16.5s72 28.5 101 52.5s52.167 55.333 69.5 94s26 86 26 142v184c-38 -53.333 -85.833 -93.833 -143.5 -121.5s-122.834 -41.5 -195.501 -41.5
c-66 -0 -125.833 10.833 -179.5 32.5s-99.667 52.167 -138 91.5s-68 86.833 -89 142.5s-31.5 117.5 -31.5 185.5c0 68.667 10.833 131.667 32.5 189s51.834 106.5 90.501 147.5s85 72.833 139 95.5s113.667 34 179 34c74.667 0 141 -15.5 199 -46.5
s107.667 -76.5 149 -136.5v164z" />
    <glyph glyph-name="h" unicode="h" horiz-adv-x="1170" 
d="M833 532c0 48.667 -2.50293 91.002 -7.50293 127.002s-14.333 65.5 -28 88.5s-32.334 39.833 -56.001 50.5s-54.5 16 -92.5 16c-36 0 -69.5 -5.66699 -100.5 -17s-58.667 -25.833 -83 -43.5s-45.5 -36.334 -63.5 -56.001s-32.333 -38.167 -43 -55.5v-510
c0 -10.667 2.33301 -19 7 -25s12.667 -10.333 24 -13s26.833 -4.16699 46.5 -4.5s44.5 -0.5 74.5 -0.5v-89h-56h-56c-19.333 0 -39.666 0.166992 -60.999 0.5s-44.666 0.833008 -69.999 1.5c-23.333 0 -45 -0.166992 -65 -0.5s-39.167 -0.5 -57.5 -0.5
s-36.166 -0.166992 -53.499 -0.5s-35 -0.5 -53 -0.5v89c37.333 0 66.333 0.833008 87 2.5s35.834 4.33398 45.501 8.00098s15.5 8.66699 17.5 15s3 14.166 3 23.499v1025c0 10 -3.5 17.833 -10.5 23.5s-17 9.66699 -30 12s-28.5 3.66602 -46.5 3.99902s-38 0.5 -60 0.5v90
c12 0 24.5 -0.166992 37.5 -0.5s28.167 -0.5 45.5 -0.5c36.667 0 74 0.5 112 1.5s77.333 2.16699 118 3.5c0 -38.667 0.166992 -80.334 0.5 -125.001s0.5 -90.167 0.5 -136.5v-137v-125.5c48 50 101.167 86.667 159.5 110s122.833 35 193.5 35c62 0 112 -9.66699 150 -29
s67.333 -48.166 88 -86.499s34.5 -86.166 41.5 -143.499s10.5 -124.333 10.5 -201v-309c0 -15.333 2.33301 -27 7 -35s12.5 -13.833 23.5 -17.5s25.5 -5.83398 43.5 -6.50098s40.667 -1 68 -1v-89h-52.5h-52.5c-18 0 -37.167 0.166992 -57.5 0.5s-42.5 0.833008 -66.5 1.5
c-48 0 -89.833 -0.333008 -125.5 -1s-71.5 -1 -107.5 -1v89c29.333 0.666992 53.666 1.66699 72.999 3s34.833 3.83301 46.5 7.5s19.834 9.16699 24.501 16.5s7 17.333 7 30v386z" />
    <glyph glyph-name="i" unicode="i" horiz-adv-x="559" 
d="M268 1315c33.333 0 59.667 -8.16699 79 -24.5s29 -38.833 29 -67.5c0 -29.333 -9.5 -52.5 -28.5 -69.5s-45.5 -25.5 -79.5 -25.5c-33.333 0 -59.333 8.33301 -78 25s-28 40 -28 70c0 28.667 9.33301 51.167 28 67.5s44.667 24.5 78 24.5zM373.001 156
c0 -16 2.66309 -28.498 7.99609 -37.498s14 -15.667 26 -20s27.5 -7 46.5 -8s42.167 -1.5 69.5 -1.5v-89c-17.333 0 -40.666 0.166992 -69.999 0.5s-58.666 0.5 -87.999 0.5s-55.333 0.166992 -78 0.5s-36 0.5 -40 0.5c-38 0 -71.5 -0.333008 -100.5 -1s-58.833 -1 -89.5 -1
v89c36 0 64 1 84 3s34.833 5.33301 44.5 10s15.334 11.167 17.001 19.5s2.5 19.166 2.5 32.499v616c0 9.33301 -2.5 16.333 -7.5 21s-13.167 8.16699 -24.5 10.5s-26.166 3.66602 -44.499 3.99902s-40.5 0.5 -66.5 0.5v89c56.667 0 110 0.333008 160 1s100.333 2 151 4v-744
z" />
    <glyph glyph-name="j" unicode="j" horiz-adv-x="546" 
d="M381 84c0 -47.333 -0.666016 -92.501 -1.99902 -135.501s-5.33301 -82.667 -12 -119s-16.5 -69.166 -29.5 -98.499s-31 -54.166 -54 -74.499s-52.167 -36 -87.5 -47s-78 -16.5 -128 -16.5c-28.667 0 -56.834 1.33301 -84.501 4s-55.167 7.66699 -82.5 15v178
c12 -1.33301 24.667 -2.16602 38 -2.49902s26.333 -0.5 39 -0.5c5.33301 -38 14.166 -63.833 26.499 -77.5s30.5 -20.5 54.5 -20.5c36 0 64.333 7.66699 85 23s36 39.166 46 71.499s16.167 73.5 18.5 123.5s3.5 109.667 3.5 179v663c0 13.333 -2.66699 23.833 -8 31.5
s-13.666 13.167 -24.999 16.5s-26.5 5.66602 -45.5 6.99902s-41.833 2 -68.5 2v89h163c51.333 0 102.333 1.66699 153 5v-816zM274.001 1315c34 0 60.499 -8 79.499 -24s28.5 -38.667 28.5 -68c0 -30 -9.66699 -53.333 -29 -70s-45.666 -25 -78.999 -25
c-34 0 -60.333 8.33301 -79 25s-28 40 -28 70c0 28.667 9.5 51.167 28.5 67.5s45.167 24.5 78.5 24.5z" />
    <glyph glyph-name="k" unicode="k" horiz-adv-x="1093" 
d="M40 89c28 0.666992 51.835 1.50098 71.502 2.50098s35.667 3.66699 48 8s21.166 11 26.499 20s8 21.5 8 37.5v996c0 12.667 -3 22.167 -9 28.5s-15.167 11 -27.5 14s-27.833 4.83301 -46.5 5.5s-40.667 1 -66 1v90h96c28 0 54.167 0.166992 78.5 0.5
s47.833 0.833008 70.5 1.5l71 2v-800l270 203c67.333 48 101 79 101 93c0 3.33301 -2.66699 6 -8 8s-12.5 3.5 -21.5 4.5s-19.667 1.5 -32 1.5h-38.5l3 89c34.667 -0.666992 65.5 -1.16699 92.5 -1.5s51.833 -0.5 74.5 -0.5c37.333 0 75.5 0.166992 114.5 0.5
s84.167 0.833008 135.5 1.5v-89c-27.333 0 -48.666 -0.333008 -63.999 -1s-30.166 -4 -44.499 -10s-31.166 -15.667 -50.499 -29s-46.333 -33 -81 -59l-281 -208l390 -359c24 -22 45.5 -36.167 64.5 -42.5s39.5 -9.5 61.5 -9.5c7.33301 0 14.666 0.166992 21.999 0.5
s15.666 0.5 24.999 0.5v-89c-32.667 0 -65 0.333008 -97 1s-66.667 1 -104 1c-24.667 0 -47.5 -0.166992 -68.5 -0.5s-41.5 -0.5 -61.5 -0.5s-39.833 -0.166992 -59.5 -0.5s-39.834 -0.5 -60.501 -0.5v89c35.333 0 60.5 0.666992 75.5 2s22.5 6 22.5 14
c0 7.33301 -4.83301 16.166 -14.5 26.499s-22.5 22.833 -38.5 37.5l-284 261l-43 -28l-1 -246c0 -14 2 -25.333 6 -34s11.667 -15.5 23 -20.5s27.166 -8.33301 47.499 -10s47.166 -2.5 80.499 -2.5v-89h-105.5c-35.667 0 -76.5 0.666992 -122.5 2
c-3.33301 0 -15.166 -0.166992 -35.499 -0.5s-43.5 -0.5 -69.5 -0.5s-52.5 -0.166992 -79.5 -0.5s-48.5 -0.5 -64.5 -0.5v89z" />
    <glyph glyph-name="l" unicode="l" horiz-adv-x="550" 
d="M358 159c0 -16.667 3.1709 -29.668 9.50391 -39.001s16 -16.333 29 -21s29 -7.5 48 -8.5s41.5 -1.5 67.5 -1.5v-89h-55h-55.5c-19 0 -38.833 0.166992 -59.5 0.5s-43.334 0.833008 -68.001 1.5c-24 0 -46.333 -0.166992 -67 -0.5s-40.334 -0.5 -59.001 -0.5
s-36.667 -0.166992 -54 -0.5s-35 -0.5 -53 -0.5v20c0 8 -0.166992 16.167 -0.5 24.5s-0.5 16.5 -0.5 24.5v20c38 0 67.167 1.66699 87.5 5s35.166 8.33301 44.499 15s14.833 15 16.5 25s2.5 22 2.5 36v982c0 12 -3.16699 21.333 -9.5 28s-15.833 11.5 -28.5 14.5
s-28 4.83301 -46 5.5s-38.667 1.33398 -62 2.00098v90c52.667 0 103.667 0.333008 153 1s102.666 1.66699 159.999 3v-1137z" />
    <glyph glyph-name="m" unicode="m" horiz-adv-x="1781" 
d="M816 533c0 44 -2.17188 83.5068 -6.50488 118.507s-12.833 64.833 -25.5 89.5s-30.667 43 -54 55s-54 18 -92 18c-32 0 -60.667 -4.33301 -86 -13s-48.666 -20.334 -69.999 -35.001s-41.5 -31.334 -60.5 -50.001s-38.833 -39.334 -59.5 -62.001v-421
c0 -38 -0.166992 -67 -0.5 -87s4 -34.167 13 -42.5s24 -12.833 45 -13.5s51.5 -1 91.5 -1v-89h-51h-52c-18 0 -37 0.166992 -57 0.5s-42 0.833008 -66 1.5c-48.667 0 -91.667 -0.333008 -129 -1s-74.666 -1 -111.999 -1v89c36.667 0 65 1.16699 85 3.5
s34.667 5.66602 44 9.99902s14.833 10 16.5 17s2.5 15.5 2.5 25.5v615c0 10.667 -2.5 19.167 -7.5 25.5s-13.167 11 -24.5 14s-26.166 4.83301 -44.499 5.5s-40.5 1 -66.5 1v89c13.333 0 26.5 -0.166992 39.5 -0.5s28.833 -0.5 47.5 -0.5c36 0 71.833 0.5 107.5 1.5
s71.5 2.16699 107.5 3.5v-148c44.667 52.667 96.667 93.334 156 122.001s124.666 43.667 195.999 45c59.333 0 112.166 -14.667 158.499 -44s81.166 -72 104.499 -128c48.667 54.667 103 97 163 127s124 45 192 45c60.667 -1.33301 109.834 -12 147.501 -32
s66.667 -48 87 -84s34 -79.333 41 -130s10.833 -107.334 11.5 -170.001v-367c0 -11.333 2.33301 -19.833 7 -25.5s12.5 -9.83398 23.5 -12.501s25.5 -4.16699 43.5 -4.5s40.333 -0.833008 67 -1.5v-91c-37.333 0 -74.5 0.333008 -111.5 1s-79.5 1 -127.5 1
c-23.333 0 -44.666 -0.166992 -63.999 -0.5s-37.666 -0.5 -54.999 -0.5s-34.333 -0.166992 -51 -0.5s-33.667 -0.5 -51 -0.5v91c28.667 0.666992 52.667 1.5 72 2.5s34.666 3.33301 45.999 7s19.5 9 24.5 16s7.5 17.167 7.5 30.5v386c0 47.333 -2.33301 88.666 -7 123.999
s-13.5 64.833 -26.5 88.5s-31.167 41 -54.5 52s-53.666 16.5 -90.999 16.5c-32.667 0 -62 -5.16699 -88 -15.5s-50 -23 -72 -38s-42.167 -31.667 -60.5 -50s-35.166 -37.833 -50.499 -58.5c-1.33301 -24 -2.33301 -48.333 -3 -73s-1 -50 -1 -76v-365
c0 -12 2.16699 -21.167 6.5 -27.5s11.666 -11 21.999 -14s24.666 -4.83301 42.999 -5.5s41.5 -1.33398 69.5 -2.00098v-89h-49h-49.5c-17 0 -35.167 0.166992 -54.5 0.5s-40.666 0.833008 -63.999 1.5c-24.667 0 -47.5 -0.166992 -68.5 -0.5s-41.167 -0.5 -60.5 -0.5
s-38.166 -0.166992 -56.499 -0.5s-36.833 -0.5 -55.5 -0.5v89c28 0.666992 51.5 1.5 70.5 2.5s34.333 3.33301 46 7s19.834 9.16699 24.501 16.5s7 17 7 29v389z" />
    <glyph glyph-name="n" unicode="n" horiz-adv-x="1162" 
d="M35 89c37.333 0 66.3379 0.660156 87.0049 1.99316s36 4 46 8s16 9.33301 18 16s3 15.334 3 26.001v632c0 8 -2.16699 14.333 -6.5 19s-12 8 -23 10s-26 3.16699 -45 3.5s-43.833 0.5 -74.5 0.5v89c59.333 0 114 0.333008 164 1s99 2 147 4v-141
c45.333 51.333 97.5 90.5 156.5 117.5s121.833 40.833 188.5 41.5c97.333 -0.666992 172 -27.167 224 -79.5s78 -135.166 78 -248.499v-460c0 -10.667 2.33301 -18.667 7 -24s12.5 -9.16602 23.5 -11.499s25.5 -3.66602 43.5 -3.99902s40 -0.833008 66 -1.5v-89h-47.5h-49
c-17 0 -35 0.166992 -54 0.5s-40.167 0.833008 -63.5 1.5c-48.667 0 -92.334 -0.333008 -131.001 -1s-77.334 -1 -116.001 -1v89c38 0 67.333 0.666992 88 2s35.667 3.83301 45 7.5s14.833 8.33398 16.5 14.001s2.5 13.167 2.5 22.5v397c0 44.667 -2.5 85.167 -7.5 121.5
s-14.333 66.166 -28 89.499s-32.334 40.833 -56.001 52.5s-54.167 17.834 -91.5 18.501c-36 -0.666992 -69 -6.66699 -99 -18s-56.833 -25.166 -80.5 -41.499s-44.334 -33.666 -62.001 -51.999s-32.834 -35.5 -45.501 -51.5c-2 -49.333 -3 -100 -3 -152v-363
c0 -12 2.83301 -21.167 8.5 -27.5s14.667 -11 27 -14s28 -4.66699 47 -5s42.167 -0.5 69.5 -0.5v-89h-51h-51.5c-17.667 0 -36.667 0.166992 -57 0.5s-42.5 0.833008 -66.5 1.5c-50 0 -94.333 -0.333008 -133 -1s-76.667 -1 -114 -1v89z" />
    <glyph glyph-name="o" unicode="o" horiz-adv-x="1115" 
d="M557 918c70 0 134.335 -11.001 193.002 -33.001s109.167 -53.667 151.5 -95s75.166 -91.333 98.499 -150s35 -123 35 -193c0 -67.333 -11.667 -130.166 -35 -188.499s-56 -108.166 -98 -149.499s-92.333 -73.333 -151 -96s-123.334 -34 -194.001 -34
s-135.167 11.167 -193.5 33.5s-108.5 54.333 -150.5 96s-74.5 91.667 -97.5 150s-34.5 121.166 -34.5 188.499c0 70 11.667 134.167 35 192.5s56 108.333 98 150s92.167 73.5 150.5 95.5s122.5 33 192.5 33zM557.002 813.999c-46.667 0 -88.667 -8.66699 -126 -26
s-69.166 -41.666 -95.499 -72.999s-46.5 -69.833 -60.5 -115.5s-21 -96.167 -21 -151.5c0 -52 7.16699 -100.833 21.5 -146.5s34.666 -84.667 60.999 -117s58.166 -57.166 95.499 -74.499s79 -26 125 -26s87.667 8.66699 125 26s69.333 42.166 96 74.499
s47.167 71.333 61.5 117s21.5 94.5 21.5 146.5c0 54.667 -7.16699 105 -21.5 151s-34.666 84.667 -60.999 116s-58.333 55.666 -96 72.999s-79.5 26 -125.5 26z" />
    <glyph glyph-name="p" unicode="p" horiz-adv-x="1194" 
d="M631 806c-46 0 -87.5 -8.33203 -124.5 -24.999s-68.333 -40.334 -94 -71.001s-45.5 -68.167 -59.5 -112.5s-21 -93.833 -21 -148.5c0 -56 7.16699 -106.667 21.5 -152s34.666 -83.5 60.999 -114.5s58.333 -55.167 96 -72.5s79.834 -26 126.501 -26s88.667 8.33301 126 25
s69.166 40.334 95.499 71.001s46.5 68.5 60.5 113.5s21 96.167 21 153.5c0 55.333 -7.16699 105.166 -21.5 149.499s-34.833 82 -61.5 113s-59.167 54.833 -97.5 71.5s-81.166 25 -128.499 25zM22 -313.999c36.667 0.666992 65.1641 2.16895 85.4971 4.50195s35.333 6 45 11
s15.5 11.167 17.5 18.5s3 16.666 3 27.999v1016c0 10.667 -2.83301 18.834 -8.5 24.501s-14.167 9.66699 -25.5 12s-26 3.83301 -44 4.5s-39 1 -63 1v89h151c49.333 0 99 1.66699 149 5l2 -165c34 56.667 80.333 100.834 139 132.501s126.334 47.5 203.001 47.5
c64.667 0 123.667 -11.167 177 -33.5s99 -53.833 137 -94.5s67.5 -89.167 88.5 -145.5s31.5 -118.833 31.5 -187.5c0 -72.667 -10.5 -137.667 -31.5 -195s-50.5 -107 -88.5 -149s-83.833 -74.333 -137.5 -97s-113.167 -34 -178.5 -34c-73.333 0 -137.666 13.667 -192.999 41
s-101.333 67 -138 119l-2 -395c0 -14.667 2 -25.834 6 -33.501s11 -13.334 21 -17.001s23.5 -5.83398 40.5 -6.50098s38.167 -1 63.5 -1h35v-90c-6 0 -16 0.166992 -30 0.5s-29.667 0.5 -47 0.5h-54h-52.5h-41.5h-21h-21h-40.5h-51h-53c-17 0 -32.167 -0.166992 -45.5 -0.5
s-22.666 -0.5 -27.999 -0.5v90z" />
    <glyph glyph-name="q" unicode="q" horiz-adv-x="1194" 
d="M864 447c0 54.667 -6.99707 104.167 -20.9971 148.5s-33.833 83.5 -59.5 117.5s-57 59.333 -94 76s-78.5 25 -124.5 25c-47.333 0 -90 -8.33301 -128 -25s-70.333 -41.5 -97 -74.5s-47.167 -72.333 -61.5 -118s-21.5 -96.5 -21.5 -152.5
c0 -56.667 7.16699 -106.5 21.5 -149.5s34.666 -80.333 60.999 -112s58.166 -56 95.499 -73s79 -25.5 125 -25.5s87.833 8.83301 125.5 26.5s69.667 41.5 96 71.5s46.666 67.667 60.999 113s21.5 96 21.5 152zM690.003 -314l38.0029 0.00195312
c31.333 0 55.5 0.666992 72.5 2s29.5 4.16602 37.5 8.49902s12.833 10.5 14.5 18.5s2.5 18.667 2.5 32l-2 392c-72.667 -106.667 -182.667 -160 -330 -160c-65.333 0 -124.833 11.333 -178.5 34s-99.5 55 -137.5 97s-67.333 91.5 -88 148.5s-31 121.833 -31 194.5
c0 68.667 10.333 132 31 190s50 107.167 88 147.5s83.667 71.666 137 93.999s112.666 33.5 177.999 33.5c74.667 0 141 -16 199 -48s105.333 -76.333 142 -133l1 163c49.333 -3.33301 99.666 -5 150.999 -5h156v-89c-39.333 0.666992 -68.333 -0.833008 -87 -4.5
s-32.667 -8.5 -42 -14.5s-14.833 -13.5 -16.5 -22.5s-2.5 -19.5 -2.5 -31.5v-983c0 -14.667 1.16699 -26.167 3.5 -34.5s8.5 -14.5 18.5 -18.5s25.167 -6.66699 45.5 -8s48.5 -2.33301 84.5 -3v-90c-6.66699 0 -17.334 0.166992 -32.001 0.5s-31 0.5 -49 0.5h-56h-53.5h-42
h-21.5h-20.5h-39.5h-49.5h-50.5c-16 0 -30.5 -0.166992 -43.5 -0.5s-22.167 -0.5 -27.5 -0.5v90z" />
    <glyph glyph-name="r" unicode="r" horiz-adv-x="822" 
d="M793 707h-59.9971c-13.333 32 -30 53.833 -50 65.5s-47.333 17.5 -82 17.5c-32.667 0 -62.667 -7.66699 -90 -23s-51 -37.166 -71 -65.499s-35.5 -62.333 -46.5 -102s-16.833 -83.834 -17.5 -132.501c-0.666992 -0.666992 -1 -8.83398 -1 -24.501
s-0.166992 -35.167 -0.5 -58.5s-0.5 -48.5 -0.5 -75.5v-76.5v-60.5v-26.5c0 -14 2.83301 -24.833 8.5 -32.5s15.167 -13.334 28.5 -17.001s31 -5.66699 53 -6s49 -0.5 81 -0.5v-89c-21.333 0 -41.833 0.166992 -61.5 0.5s-40.167 0.5 -61.5 0.5s-43.833 0.166992 -67.5 0.5
s-49.834 0.5 -78.501 0.5c-24.667 0 -47 -0.166992 -67 -0.5s-38.833 -0.5 -56.5 -0.5s-34.834 -0.166992 -51.501 -0.5s-34 -0.5 -52 -0.5v89c38 0 67.5 0.833008 88.5 2.5s36.5 4.83398 46.5 9.50098s15.833 11.334 17.5 20.001s2.5 19.667 2.5 33v606
c0 11.333 -1.83301 20.166 -5.5 26.499s-11 11 -22 14s-26.333 4.66699 -46 5s-45.167 0.5 -76.5 0.5v89c7.33301 0 18.833 -0.166992 34.5 -0.5s31.167 -0.5 46.5 -0.5h59c28 0 56.167 0.666992 84.5 2s57.5 2.33301 87.5 3v-182c32 62.667 76.5 111.834 133.5 147.501
s124.5 53.5 202.5 53.5c29.333 0 59.666 -2 90.999 -6v-205z" />
    <glyph glyph-name="s" unicode="s" horiz-adv-x="927" 
d="M800 618h-93.9971c-2.66699 66.667 -24.834 118.167 -66.501 154.5s-101.834 54.5 -180.501 54.5c-33.333 0 -62.333 -4 -87 -12s-45.334 -18.667 -62.001 -32s-29 -28.833 -37 -46.5s-12 -35.834 -12 -54.501c0 -20.667 5.5 -38.834 16.5 -54.501s26.5 -29.5 46.5 -41.5
s43.833 -22.667 71.5 -32s58.167 -18.333 91.5 -27c54 -14 102.833 -28.667 146.5 -44s80.667 -33.5 111 -54.5s53.833 -46.333 70.5 -76s25 -66.167 25 -109.5c0 -42.667 -8.66699 -80.334 -26 -113.001s-41.833 -60.167 -73.5 -82.5s-69.834 -39.333 -114.501 -51
s-94.334 -17.5 -149.001 -17.5c-69.333 0 -127 8.33301 -173 25s-83.667 43 -113 79l-10 -83c-15.333 0.666992 -30 1.16699 -44 1.5s-28.667 -0.166992 -44 -1.5v297h97c4 -77.333 29 -133.833 75 -169.5s109 -53.5 189 -53.5c34 0 65.167 3.5 93.5 10.5
s52.5 16.5 72.5 28.5s35.667 26.667 47 44s17 38 17 62c0 26 -7.83301 48 -23.5 66s-36.667 33.833 -63 47.5s-57 25.667 -92 36l-110.5 32.5c-47.333 14.667 -88.833 29.834 -124.5 45.501s-65.5 33.5 -89.5 53.5s-42 43.333 -54 70s-18 58 -18 94
c0 34.667 7.5 67.334 22.5 98.001s36.5 57.834 64.5 81.501s61.833 42 101.5 55s84.167 19.5 133.5 19.5c54.667 0 106.334 -7.83301 155.001 -23.5s88 -39.167 118 -70.5c0 0.666992 1.16699 4.5 3.5 11.5l7.5 23.5l10 36c12 -0.666992 23.333 -1 34 -1
c9.33301 0 17.833 0.166992 25.5 0.5s12.834 0.5 15.501 0.5v-277z" />
    <glyph glyph-name="t" unicode="t" horiz-adv-x="655" 
d="M344 1148l-0.00195312 -253.002h240v-89h-239v-501c0 -34 0.333008 -64.5 1 -91.5s3.83398 -50.167 9.50098 -69.5s14.834 -34.166 27.501 -44.499s31 -15.5 55 -15.5c9.33301 0 18.666 1.83301 27.999 5.5s17.5 9.83398 24.5 18.501s12.667 19.834 17 33.501
s6.5 30.5 6.5 50.5l91 9c0 -39.333 -5.5 -73 -16.5 -101s-25.667 -50.833 -44 -68.5s-39.833 -30.834 -64.5 -39.501s-50.667 -13 -78 -13c-46.667 0 -84.5 7.66699 -113.5 23s-51.667 36.5 -68 63.5s-27.5 60.167 -33.5 99.5s-9 83 -9 131v510h-164v79
c16.667 0.666992 35.334 1.83398 56.001 3.50098s40.334 3.16699 59.001 4.5l66 6c0.666992 4.66699 1.66699 13.167 3 25.5s2.66602 26.666 3.99902 42.999s3 33.333 5 51s3.66699 34 5 49l3.5 38c1 10.333 1.5 15.833 1.5 16.5z" />
    <glyph glyph-name="u" unicode="u" horiz-adv-x="1170" 
d="M472 -21c-63.333 0 -114.002 9.66406 -152.002 28.9971s-67.167 47.833 -87.5 85.5s-33.666 84 -39.999 139s-9.5 118.167 -9.5 189.5v317c0 16.667 -1.5 29.667 -4.5 39s-9.5 16 -19.5 20s-24.5 6.33301 -43.5 7s-44.167 1 -75.5 1v87h82
c25.333 0 50.166 0.166992 74.499 0.5s49 1 74 2s51.833 2.16699 80.5 3.5v-528c0 -42 1.83301 -81 5.5 -117s11.667 -66.667 24 -92s30 -44.666 53 -57.999s53.833 -20 92.5 -20c36 0 69.167 3.83301 99.5 11.5s57.833 18.667 82.5 33s46.334 31.5 65.001 51.5
s34.334 40.667 47.001 62c1.33301 24.667 2 49.167 2 73.5v74.5v344c0 18 -1.5 31.833 -4.5 41.5s-9.66699 16.834 -20 21.501s-25.166 7.33398 -44.499 8.00098s-45.333 1 -78 1v87c50.667 0 102.5 0.333008 155.5 1s106.167 2.66699 159.5 6v-760
c0 -12 1.66699 -21.5 5 -28.5s10.166 -12.167 20.499 -15.5s24.833 -5.33301 43.5 -6s43.334 -1 74.001 -1v-89c-60 0 -114.333 -0.333008 -163 -1s-95.667 -1.66699 -141 -3v134c-46 -50.667 -99.333 -88.5 -160 -113.5s-126.334 -37.5 -197.001 -37.5z" />
    <glyph glyph-name="v" unicode="v" horiz-adv-x="1094" 
d="M161 712c-10.667 24.667 -19.5029 43.3291 -26.5029 55.9961s-15.333 21.834 -25 27.501s-22 8.83398 -37 9.50098s-35.5 1 -61.5 1l-1 89c34.667 0 69 -0.333008 103 -1s66.667 -1 98 -1s67.166 0.333008 107.499 1s85.5 1 135.5 1l-1 -89c-54 0 -91 -2.16699 -111 -6.5
s-30.333 -14.833 -31 -31.5c0.666992 -9.33301 3.33398 -20.5 8.00098 -33.5l18 -48.5l31 -79.5l36 -92l38 -96l37 -93.5l86 -218c0.666992 2 4.33398 11.333 11.001 28l25.5 65l35 90l39.5 102.5l39.5 102.5l35 89.5l25.5 66c6.66699 17.667 10.334 27.167 11.001 28.5
c7.33301 18 13 34.167 17 48.5s6.66699 26.5 8 36.5c-0.666992 8.66699 -3.5 15.834 -8.5 21.501s-12.833 10 -23.5 13s-24.667 5 -42 6s-38.666 1.5 -63.999 1.5v89c34 0 65.833 -0.5 95.5 -1.5s60.167 -1.5 91.5 -1.5c36 0 72.5 0.5 109.5 1.5s74.5 1.5 112.5 1.5v-89
c-21.333 0 -39 -0.666992 -53 -2s-25.833 -4.16602 -35.5 -8.49902s-18 -10.333 -25 -18s-13.667 -18.167 -20 -31.5s-13.333 -29.833 -21 -49.5l-28.5 -70.5l-265 -638h-166z" />
    <glyph glyph-name="w" unicode="w" horiz-adv-x="1597" 
d="M14 895c34 -0.666992 67.501 -1.16797 100.501 -1.50098s62.833 -0.5 89.5 -0.5c24 0 53.5 0.333008 88.5 1s73.167 1 114.5 1v-89h-75c-15.333 0 -25.5 -2.5 -30.5 -7.5s-7.5 -14.5 -7.5 -28.5c0 -13.333 1.66699 -28.5 5 -45.5s7.5 -34.833 12.5 -53.5
s10.5 -37.667 16.5 -57l18 -56l25.5 -81.5l29.5 -93.5l29 -94.5l25 -83.5l18 -60.5c4.66699 -15.667 7.33398 -24.5 8.00098 -26.5l33 111c4 14.667 8.16699 29.167 12.5 43.5l12.5 40.5l10.5 33.5c3 9.66699 5.5 17.167 7.5 22.5l149 453h210l126 -393
c2.66699 -10 6.16699 -22.167 10.5 -36.5l14 -46.5l15 -52.5c5 -18.333 10.167 -36.166 15.5 -53.499l37 -129l95 318l35.5 119l31 105l22.5 76c6 20 9.66699 31 11 33c1.33301 4.66699 2.33301 8.5 3 11.5s1.33398 6.16699 2.00098 9.5
c-1.33301 10.667 -10.5 17.167 -27.5 19.5s-47.5 3.5 -91.5 3.5v89c28 0 56.5 -0.333008 85.5 -1s57.5 -1 85.5 -1c33.333 0 66.166 0.333008 98.499 1s65.166 1 98.499 1v-89c-30 0 -52.667 -1.16699 -68 -3.5s-27.833 -9.33301 -37.5 -21s-18.5 -30 -26.5 -55l-34 -105.5
l-207 -633h-174l-237 762l-238 -762h-176l-237 711c-8.66699 25.333 -15.834 45 -21.501 59s-12.667 24.5 -21 31.5s-19.5 11.5 -33.5 13.5s-33.333 3 -58 3v89z" />
    <glyph glyph-name="x" unicode="x" horiz-adv-x="1101" 
d="M48 895c2.66699 0 11.834 -0.166016 27.501 -0.499023s34 -0.5 55 -0.5s42.167 -0.166992 63.5 -0.5s39 -0.5 53 -0.5h47c14.667 0 29.667 0.166992 45 0.5s31.5 0.666016 48.5 0.999023s35.5 0.5 55.5 0.5l2 -74c-37.333 -0.666992 -63.666 -2.5 -78.999 -5.5
s-23 -8.83301 -23 -17.5c0 -9.33301 4.66699 -19.166 14 -29.499l34 -38.5l167 -191l131 156l49 60.5c12.667 16.333 19 29.5 19 39.5s-6.83301 16.833 -20.5 20.5s-36.5 5.5 -68.5 5.5l1 74c32.667 0 63 -0.333008 91 -1s54.667 -1 80 -1
c31.333 0 62.166 0.166992 92.499 0.5s65.833 0.833008 106.5 1.5v-89h-27c-22.667 0 -40.334 -0.833008 -53.001 -2.5s-24.667 -6.66699 -36 -15s-24.5 -21.333 -39.5 -39l-63.5 -77.5l-50 -59.5l-58 -68.5l-67 -79l128 -145l48 -53.5l42.5 -47.5
c12.333 -14 22.5 -26 30.5 -36s12.667 -15.333 14 -16c17.333 -20 31.166 -35.167 41.499 -45.5s20.5 -18 30.5 -23s21.333 -7.83301 34 -8.5s30.334 -1 53.001 -1v-89c-27.333 0 -55.5 0.333008 -84.5 1s-63.833 1 -104.5 1c-3.33301 0 -12.666 -0.166992 -27.999 -0.5
s-32.833 -0.5 -52.5 -0.5s-39.334 -0.166992 -59.001 -0.5s-35.167 -0.5 -46.5 -0.5v74c38.667 0 64.334 6.33301 77.001 19l-26 38.5c-10 14.333 -21 29.166 -33 44.499l-37 47l-38 46l-93 107l-107 -125l-39.5 -46.5l-35 -41l-25.5 -30.5
c-6.66699 -8 -10.334 -12.333 -11.001 -13c-1.33301 -5.33301 -2 -8.66602 -2 -9.99902c0 -11.333 7.5 -19.833 22.5 -25.5s40.5 -9.16699 76.5 -10.5l-1 -74c-2.66699 0 -11.334 0.166992 -26.001 0.5s-31.834 0.666016 -51.501 0.999023s-40.167 0.5 -61.5 0.5h-56
c-20 0 -38.167 -0.166992 -54.5 -0.5s-31.833 -0.5 -46.5 -0.5s-29 -0.166992 -43 -0.5s-29 -0.5 -45 -0.5v89h47c12.667 0 23.667 1.16699 33 3.5s18.333 6.33301 27 12s17.667 13.5 27 23.5s20.333 22.667 33 38c0.666992 1.33301 4.83398 6.83301 12.501 16.5l28.5 35
l38.5 46.5l43.5 52l116 139l-237 273c-17.333 20 -31.166 35.167 -41.499 45.5s-20.5 18 -30.5 23s-21.333 7.83301 -34 8.5s-29.667 1 -51 1v89z" />
    <glyph glyph-name="y" unicode="y" horiz-adv-x="1060" 
d="M161 -272l50.0029 -7.99805c13.333 -2 27 -3.66699 41 -5s25.667 -2 35 -2c14 0 27.167 3 39.5 9s24.666 15.833 36.999 29.5s25 31.667 38 54s26.833 49.833 41.5 82.5l38 100l-165 355l-62.5 133l-55.5 122.5l-42 93c-11.333 24.333 -18.333 39.166 -21 44.499
c-7.33301 16 -14 28.5 -20 37.5s-12.833 16 -20.5 21s-17.334 8.16699 -29.001 9.5s-27.167 2 -46.5 2h-36v89c38 0 75.5 -0.333008 112.5 -1s71.833 -1 104.5 -1c31.333 0 66.833 0.333008 106.5 1s84.5 1 134.5 1v-89h-88c-18 0 -32.167 -3.16699 -42.5 -9.5
s-15.833 -17.5 -16.5 -33.5c0.666992 -13.333 3.66699 -28.333 9 -45s11.833 -33.834 19.5 -51.501l24 -53l23.5 -50.5l191 -408l80 199l35 86.5l36 89l34.5 86.5l30.5 76c6 14.667 10.667 27.334 14 38.001s5.33301 20.667 6 30c-0.666992 10 -2.83398 18 -6.50098 24
s-10.5 10.667 -20.5 14s-24.333 5.5 -43 6.5s-43 1.5 -73 1.5v89c34.667 0 68.167 -0.333008 100.5 -1s64.5 -1 96.5 -1c35.333 0 71.666 0.333008 108.999 1s75.333 1 114 1v-89c-28.667 0 -51.167 -1 -67.5 -3s-29.5 -6.5 -39.5 -13.5s-18.333 -17 -25 -30
s-15 -30.5 -25 -52.5l-345 -814c-24 -56.667 -46.667 -104 -68 -142s-43 -68.5 -65 -91.5s-45.167 -39.333 -69.5 -49s-51.833 -14.5 -82.5 -14.5c-14.667 0 -29.667 1.33301 -45 4s-29.666 5.66699 -42.999 9c-15.333 3.33301 -30.333 7.66602 -45 12.999z" />
    <glyph glyph-name="z" unicode="z" horiz-adv-x="975" 
d="M881 894v-119l-622 -678h452c18.667 0 34 0.5 46 1.5s21.667 4.66699 29 11s12.5 16.666 15.5 30.999s4.5 34.833 4.5 61.5v53c0 13.333 -0.166992 25.5 -0.5 36.5s-0.5 16.833 -0.5 17.5h87v-309h-810v120l622 677h-439c-16.667 0 -29.667 -2.83301 -39 -8.5
s-16.333 -15.667 -21 -30s-7.5 -34.166 -8.5 -59.499s-1.5 -58 -1.5 -98h-86v293h772z" />
    <glyph glyph-name="braceleft" unicode="{" horiz-adv-x="860" 
d="M704 -332c-59.333 0 -110.335 5.49805 -153.002 16.498s-77.5 30 -104.5 57s-46.833 63.333 -59.5 109s-19 102.834 -19 171.501v192c0 45.333 -3.83301 84.833 -11.5 118.5s-20.667 62 -39 85s-42.666 40.833 -72.999 53.5s-67.833 20 -112.5 22v103
c45.333 2 83.166 9.16699 113.499 21.5s54.5 30.166 72.5 53.499s30.833 52.333 38.5 87s11.5 75.667 11.5 123v186c0 66.667 6.16699 122.667 18.5 168s32 81.833 59 109.5s61.667 47.334 104 59.001s93.5 17.5 153.5 17.5c2.66699 0 6.5 -0.166992 11.5 -0.5
s9.16699 -0.833008 12.5 -1.5v-94c-43.333 -0.666992 -78.666 -4.5 -105.999 -11.5s-49 -20.167 -65 -39.5s-27 -46.666 -33 -81.999s-9 -81.666 -9 -138.999c-0.666992 -83.333 -3 -153.833 -7 -211.5s-13.833 -106.167 -29.5 -145.5s-39.334 -70.833 -71.001 -94.5
s-75.5 -42.5 -131.5 -56.5c46 -12 84.333 -27.833 115 -47.5s55.167 -45 73.5 -76s31.333 -68.333 39 -112s11.5 -95.834 11.5 -156.501c0 -56 0.5 -104.333 1.5 -145s3.83301 -75.5 8.5 -104.5s11.334 -52.5 20.001 -70.5s21 -32.167 37 -42.5s35.833 -17.5 59.5 -21.5
s52.5 -6.33301 86.5 -7v-93c-3.33301 -0.666992 -7.16602 -1 -11.499 -1h-11.5z" />
    <glyph glyph-name="bar" unicode="|" horiz-adv-x="1038" 
d="M586 -448h-133v1890h133v-1890z" />
    <glyph glyph-name="braceright" unicode="}" horiz-adv-x="860" 
d="M492 885c0 -48 3.66406 -89.502 10.9971 -124.502s20 -64.333 38 -88s42.167 -41.834 72.5 -54.501s68.5 -20 114.5 -22v-103c-45.333 -2 -83 -9.33301 -113 -22s-54.167 -30.667 -72.5 -54s-31.333 -52 -39 -86s-11.5 -74 -11.5 -120v-137
c0 -78 -5.16699 -143.167 -15.5 -195.5s-28.5 -94 -54.5 -125s-60.667 -53 -104 -66s-98 -19.5 -164 -19.5h-10.5c-4.33301 0 -7.83301 0.333008 -10.5 1v93c44 0.666992 79.667 4.66699 107 12s48.666 21 63.999 41s25.833 48.167 31.5 84.5
s8.83398 84.166 9.50098 143.499c0.666992 78.667 3 146.167 7 202.5s13.833 104 29.5 143s39.334 70.833 71.001 95.5s75.5 44.667 131.5 60c-49.333 13.333 -89.5 30.5 -120.5 51.5s-55.167 48 -72.5 81s-29.166 73 -35.499 120s-9.83301 102.5 -10.5 166.5
c-0.666992 51.333 -1.66699 96 -3 134s-4.33301 70.333 -9 97s-11.5 48.334 -20.5 65.001s-21.333 29.834 -37 39.501s-35.167 16.334 -58.5 20.001s-51.333 5.83398 -84 6.50098v95c2.66699 0.666992 6.16699 1 10.5 1h11.5c58.667 0 109.334 -5.83301 152.001 -17.5
s77.667 -31 105 -58s47.5 -62.667 60.5 -107s19.5 -99.5 19.5 -165.5v-188z" />
    <glyph glyph-name="asciitilde" unicode="~" horiz-adv-x="1528" 
d="M1375 640c-65.333 -46 -124.834 -79.501 -178.501 -100.501s-106.5 -31.5 -158.5 -31.5c-30 0 -59.667 3.33301 -89 10s-61 16 -95 28c-37.333 12.667 -72.5 25.5 -105.5 38.5s-64.5 24.5 -94.5 34.5s-58.167 18.167 -84.5 24.5s-51.5 9.5 -75.5 9.5
c-25.333 0 -50 -2.5 -74 -7.5s-49.333 -13.167 -76 -24.5s-55.334 -26.166 -86.001 -44.499s-65 -40.833 -103 -67.5v137c64.667 44 124.834 76.833 180.501 98.5s109.167 32.5 160.5 32.5c20 0 40 -1.5 60 -4.5s40.833 -7.33301 62.5 -13s44.834 -12.834 69.501 -21.501
l82 -30c55.333 -21.333 104.833 -39.166 148.5 -53.499s83.5 -21.5 119.5 -21.5c24 0 48 2.5 72 7.5s49.333 13 76 24s55.5 25.5 86.5 43.5s65.167 40 102.5 66v-134z" />
    <glyph glyph-name="uni00A0" unicode="&#xa0;" horiz-adv-x="541" 
 />
    <glyph glyph-name="exclamdown" unicode="&#xa1;" horiz-adv-x="596" 
d="M288 172c18.667 0 34.832 -2.5 48.499 -7.5s24.834 -11.667 33.501 -20s15 -17.833 19 -28.5s6 -22 6 -34c0 -24 -8.16699 -45.167 -24.5 -63.5s-43.833 -27.5 -82.5 -27.5s-66.334 8.83301 -83.001 26.5s-25 39.167 -25 64.5c0 12 2 23.333 6 34s10.333 20.167 19 28.5
s19.834 15 33.501 20s30.167 7.5 49.5 7.5zM378.998 1290c0 -1.33301 0.168945 -8.5 0.501953 -21.5s0.5 -27.5 0.5 -43.5v-44v-22c0 -3.33301 -0.666992 -16.833 -2 -40.5s-3.16602 -53.667 -5.49902 -90s-4.83301 -77.5 -7.5 -123.5s-5.66699 -92.667 -9 -140l-9.5 -140
c-3 -46 -5.83301 -87.167 -8.5 -123.5l-6.5 -90c-1.66699 -23.667 -2.83398 -37.167 -3.50098 -40.5h-71c-0.666992 3.33301 -1.83398 16.833 -3.50098 40.5l-6.5 90c-2.66699 36.333 -5.33398 77.333 -8.00098 123l-8.5 140l-9 140.5c-3 46 -5.5 87.167 -7.5 123.5l-5 90.5
c-1.33301 24 -2 37.667 -2 41v21v44c0 16 0.166992 30.5 0.5 43.5s0.5 20.167 0.5 21.5h171z" />
    <glyph glyph-name="cent" unicode="&#xa2;" horiz-adv-x="1122" 
d="M514 -27c-66 4 -125.498 18.165 -178.498 42.498s-98.333 57 -136 98s-66.667 89.5 -87 145.5s-30.5 118 -30.5 186c0 66 10.667 127.333 32 184s51.166 106 89.499 148s83.833 75.333 136.5 100s110.667 38 174 40v176h92v-179c42.667 -5.33301 81 -15.166 115 -29.499
s63.667 -36.833 89 -67.5l25 78h97v-319h-106c-2 77.333 -25.5 136 -70.5 176s-106.833 60 -185.5 60c-47.333 0 -89.666 -8.33301 -126.999 -25s-69 -40.5 -95 -71.5s-45.833 -68.833 -59.5 -113.5s-20.5 -95 -20.5 -151c0 -56.667 7.16699 -107.667 21.5 -153
s34.666 -84 60.999 -116s58.166 -56.667 95.499 -74s79 -26 125 -26c66.667 0 122.667 17.667 168 53s77.666 85.666 96.999 150.999l126 -25c-10.667 -42 -26.667 -80 -48 -114s-47.166 -63.167 -77.499 -87.5s-64.833 -43.666 -103.5 -57.999s-81 -23.166 -127 -26.499
v-176h-92v174z" />
    <glyph glyph-name="sterling" unicode="&#xa3;" horiz-adv-x="1135" 
d="M1064 306c-0.666992 -51.333 -7.00391 -96.998 -19.0039 -136.998s-28.833 -73.667 -50.5 -101s-47.834 -48.333 -78.501 -63s-65 -22 -103 -22c-47.333 0 -95.666 12.833 -144.999 38.5s-101.333 66.167 -156 121.5c-27.333 -51.333 -60.833 -90.833 -100.5 -118.5
s-83.167 -41.5 -130.5 -41.5c-28.667 0 -54.834 4.66699 -78.501 14s-44.167 22.166 -61.5 38.499s-30.833 36 -40.5 59s-14.5 48.167 -14.5 75.5c0 26 5 50.167 15 72.5s24.167 41.666 42.5 57.999s40.166 29.166 65.499 38.499s53 14 83 14
c27.333 0 52.833 -3.83301 76.5 -11.5s49.834 -20.834 78.501 -39.501c0.666992 5.33301 1.16699 11 1.5 17s0.5 12.333 0.5 19c0 46.667 -6.83301 95.667 -20.5 147s-30.5 99 -50.5 143h-271v99h232c-18 36.667 -33.167 70.167 -45.5 100.5s-22.333 58.833 -30 85.5
s-13.167 51.667 -16.5 75s-5 46.333 -5 69c0 48.667 8.83301 92.834 26.5 132.501s42.834 73.5 75.501 101.5s72 49.5 118 64.5s97.333 22.5 154 22.5c116.667 0 206.834 -28.333 270.501 -85s96.834 -138 99.501 -244l-131 -6c-3.33301 74 -25.5 130.833 -66.5 170.5
s-96.833 59.5 -167.5 59.5c-33.333 0 -63.666 -5 -90.999 -15s-51 -23.833 -71 -41.5s-35.5 -39 -46.5 -64s-16.5 -52.5 -16.5 -82.5c0 -34 8 -79 24 -135s41.667 -125.333 77 -208h276v-99h-242c16 -42 27.333 -81 34 -117s10 -71 10 -105c0 -31.333 -2 -59.833 -6 -85.5
s-9.33301 -52.167 -16 -79.5l74 -61c22.667 -18 44 -33.167 64 -45.5s39.667 -21.833 59 -28.5s39 -10 59 -10c48.667 0 84.834 17.333 108.501 52s37.167 90.334 40.5 167.001zM426.996 210.002c-19.333 19.333 -40.833 34.5 -64.5 45.5s-46.834 16.5 -69.501 16.5
c-31.333 0 -57.166 -9.66699 -77.499 -29s-30.5 -44 -30.5 -74c0 -28 8.83301 -50.5 26.5 -67.5s39.5 -25.5 65.5 -25.5c33.333 0 62.333 10.5 87 31.5s45.667 55.167 63 102.5z" />
    <glyph glyph-name="currency" unicode="&#xa4;" horiz-adv-x="1303" 
d="M389 1104c44.667 31.333 87.667 54.166 129 68.499s86 21.5 134 21.5s93 -7.16699 135 -21.5s85 -37.166 129 -68.499l169 166l78 -79l-168 -164c29.333 -36.667 51.5 -76.667 66.5 -120s22.5 -88.666 22.5 -135.999c0 -18.667 -1.66699 -38.834 -5 -60.501
s-8.5 -43.667 -15.5 -66s-16.167 -44.5 -27.5 -66.5s-25 -43 -41 -63l168 -163l-78 -79l-168 164c-40.667 -29.333 -82.834 -51.166 -126.501 -65.499s-90.5 -21.5 -140.5 -21.5c-49.333 0 -95.166 7 -137.499 21s-83.5 35.667 -123.5 65l-167 -163l-80 79l166 162
c-30.667 41.333 -53.167 82.666 -67.5 123.999s-21.5 86 -21.5 134c0 46.667 7.16699 90.5 21.5 131.5s36.833 82.5 67.5 124.5l-166 163l80 79zM970 773c0 42 -8.33301 81.833 -25 119.5s-39.5 70.5 -68.5 98.5s-62.667 50.167 -101 66.5s-79.5 24.5 -123.5 24.5
s-85.333 -8.16699 -124 -24.5s-72.334 -38.5 -101.001 -66.5s-51.334 -60.833 -68.001 -98.5s-25 -77.5 -25 -119.5c0 -43.333 8.33301 -83.833 25 -121.5s39.334 -70.667 68.001 -99s62.334 -50.666 101.001 -66.999s80 -24.5 124 -24.5c43.333 0 84.333 8.16699 123 24.5
s72.5 38.666 101.5 66.999s51.833 61.5 68.5 99.5s25 78.333 25 121z" />
    <glyph glyph-name="yen" unicode="&#xa5;" horiz-adv-x="1169" 
d="M-6 1290c21.333 -1.33301 43.1699 -2.16602 65.5029 -2.49902s49.833 -0.5 82.5 -0.5c30 0 58.333 0.166992 85 0.5l82 1c28 0.333008 58 0.666016 90 0.999023s68 0.5 108 0.5v-99h-35c-44 0 -75.833 -1.16699 -95.5 -3.5s-29.5 -10.166 -29.5 -23.499
c0 -9.33301 3.83301 -21 11.5 -35s18.834 -32.667 33.501 -56l256 -412l254 402l36.5 62c9 16 13.5 28.667 13.5 38c0 12.667 -9.33301 20.5 -28 23.5s-50 4.5 -94 4.5h-34v99c30.667 -0.666992 58.167 -1.16699 82.5 -1.5s46.666 -0.5 66.999 -0.5h57.5h54h105.5
c32.333 0 66.5 0.666992 102.5 2v-99c-30.667 0 -54.667 -0.5 -72 -1.5s-31.5 -4 -42.5 -9s-20.667 -12.833 -29 -23.5s-18.833 -25.334 -31.5 -44.001l-28 -42l-36.5 -55l-41 -62l-41.5 -63h261v-91h-322l-77 -117h399v-93h-453c-5.33301 -8 -9.83301 -15.333 -13.5 -22
s-7.16699 -12.667 -10.5 -18c-3.33301 -6 -6.33301 -11.667 -9 -17v-374c0 -13.333 1.33301 -24 4 -32s8.5 -14 17.5 -18s22.167 -6.66699 39.5 -8s40.666 -2 69.999 -2h52v-99h-125c-42 0 -91.667 0.666992 -149 2c-27.333 0 -52.833 -0.166992 -76.5 -0.5
s-46.167 -0.5 -67.5 -0.5s-41.833 -0.166992 -61.5 -0.5s-39.5 -0.5 -59.5 -0.5v99h51c31.333 0 55.666 1.16699 72.999 3.5s30.166 5.83301 38.499 10.5s13.333 10.667 15 18s2.5 16 2.5 26v378l-32 55h-443v93h389l-76 117h-313v91h254l-118 183
c-18 28 -32.833 50 -44.5 66s-24.167 27.667 -37.5 35s-29.5 11.833 -48.5 13.5s-45.167 2.5 -78.5 2.5v99z" />
    <glyph glyph-name="brokenbar" unicode="&#xa6;" horiz-adv-x="1038" 
d="M586 724h-133v733h133v-733zM586 -203h-133v732h133v-732z" />
    <glyph glyph-name="section" unicode="&#xa7;" horiz-adv-x="997" 
d="M495 1316c47.333 0 92.168 -5.83105 134.501 -17.498s79.5 -30.334 111.5 -56.001s57.5 -58.667 76.5 -99s28.833 -89.5 29.5 -147.5h-106c-6.66699 152 -88.667 228 -246 228c-32.667 0 -62.5 -4 -89.5 -12s-50.333 -19.5 -70 -34.5s-34.834 -33.333 -45.501 -55
s-16 -45.834 -16 -72.501c0 -27.333 4.33301 -50.666 13 -69.999s23.167 -37.5 43.5 -54.5s47.166 -33.667 80.499 -50s74.666 -34.5 123.999 -54.5c59.333 -24 112.833 -47.833 160.5 -71.5s88.334 -49.5 122.001 -77.5s59.5 -59.5 77.5 -94.5s27 -75.833 27 -122.5
c0 -52 -14.5 -99.833 -43.5 -143.5s-71.167 -82.167 -126.5 -115.5c80 -56 120 -131.667 120 -227c0 -46 -8.5 -87.333 -25.5 -124s-41.5 -67.667 -73.5 -93s-71 -44.833 -117 -58.5s-98 -20.5 -156 -20.5c-70 0 -135.333 8.16699 -196 24.5s-114 40.833 -160 73.5l-2 198
h104c0.666992 -66 20.834 -116.333 60.501 -151s104.167 -52 193.5 -52c34.667 0 66 4.33301 94 13s51.667 21 71 37s34.333 35 45 57s16 46.333 16 73c0 26 -6.66699 50 -20 72s-32.166 42.5 -56.499 61.5s-53.333 37 -87 54s-70.834 33.833 -111.501 50.5
c-54.667 22 -105 44.167 -151 66.5s-85.5 47 -118.5 74s-58.833 57.667 -77.5 92s-28 75.166 -28 122.499c0 50.667 13.333 97 40 139s69.667 84 129 126c-79.333 54 -119 129.667 -119 227c0 43.333 8.66699 82.5 26 117.5s42 65 74 90s70.833 44.167 116.5 57.5
s96.5 20 152.5 20zM324.002 757.002c-40 -38 -67.832 -72.001 -83.499 -102.001s-23.5 -59 -23.5 -87c0 -39.333 13 -73.666 39 -102.999s60.167 -56.166 102.5 -80.499s90.666 -47.666 144.999 -69.999l166.5 -70.5c38.667 29.333 67 59.666 85 90.999s27 64.333 27 99
c0 36.667 -10 68.167 -30 94.5s-49.5 51.166 -88.5 74.499s-87 46.833 -144 70.5z" />
    <glyph glyph-name="dieresis" unicode="&#xa8;" 
d="M613 1274c28 0 50.334 -8.00098 67.001 -24.001s25 -37.667 25 -65c0 -26.667 -8.33301 -48.167 -25 -64.5s-39.334 -24.5 -68.001 -24.5c-28 0 -50.167 8.33301 -66.5 25s-24.5 38.334 -24.5 65.001s8.33301 48 25 64s39 24 67 24zM240.001 1274
c28 0 50.167 -7.83398 66.5 -23.501s24.5 -37.5 24.5 -65.5c0 -26.667 -8.16699 -48.167 -24.5 -64.5s-38.833 -24.5 -67.5 -24.5c-28 0 -50.167 8.33301 -66.5 25s-24.5 38.334 -24.5 65.001s8.33301 48 25 64s39 24 67 24z" />
    <glyph glyph-name="copyright" unicode="&#xa9;" horiz-adv-x="1666" 
d="M834 1402c68.667 0 134.498 -8.83203 197.498 -26.499s121.667 -42.334 176 -74.001s103.5 -69.5 147.5 -113.5s81.833 -92.5 113.5 -145.5s56 -109.833 73 -170.5s25.5 -123 25.5 -187c0 -65.333 -8.83301 -128.333 -26.5 -189s-42.334 -117.5 -74.001 -170.5
s-70 -101.333 -115 -145s-94.667 -81.167 -149 -112.5s-112.666 -55.5 -174.999 -72.5s-127.166 -25.5 -194.499 -25.5s-132.333 8.5 -195 25.5s-121.167 41.167 -175.5 72.5s-103.833 68.833 -148.5 112.5s-83 92 -115 145s-56.667 109.833 -74 170.5s-26 123.667 -26 189
s8.83301 128.5 26.5 189.5s42.334 118 74.001 171s70 101.5 115 145.5s94.667 81.5 149 112.5s112.833 55.167 175.5 72.5s127.667 26 195 26zM1470 685.001c0 87.333 -17 169.168 -51 245.501s-80 142.833 -138 199.5s-125.5 101.334 -202.5 134.001s-158.833 49 -245.5 49
c-88.667 0 -171.834 -16.833 -249.501 -50.5s-145.334 -79.167 -203.001 -136.5s-103.167 -124 -136.5 -200s-50 -156.333 -50 -241c0 -86.667 17 -168 51 -244s80 -142.167 138 -198.5s125.667 -100.833 203 -133.5s159.333 -49 246 -49
c58.667 0 115.334 7.66699 170.001 23s105.667 36.666 153 63.999s90.333 60.166 129 98.499s71.834 80.666 99.501 126.999s49 95.833 64 148.5s22.5 107.334 22.5 164.001zM1163 829.003l-77.998 -12.9961c-22.667 70.667 -54.834 123.5 -96.501 158.5
s-92.167 52.5 -151.5 52.5c-40 0 -76 -7.5 -108 -22.5s-59.167 -36.667 -81.5 -65s-39.666 -63.333 -51.999 -105s-18.5 -88.834 -18.5 -141.501c0 -55.333 6 -104.833 18 -148.5s29.333 -80.667 52 -111s50.167 -53.5 82.5 -69.5s68.833 -24 109.5 -24
c53.333 0 102.5 14 147.5 42s83.5 74.667 115.5 140l70 -28c-17.333 -42.667 -38.5 -78.834 -63.5 -108.501s-52.667 -53.834 -83 -72.501s-62.333 -32.167 -96 -40.5s-67.834 -12.5 -102.501 -12.5c-57.333 0 -110 11 -158 33s-89.667 52 -125 90s-62.833 82.5 -82.5 133.5
s-29.5 105.167 -29.5 162.5c0 55.333 9.66699 108 29 158s46.833 94 82.5 132s78.667 68.167 129 90.5s106.166 33.5 167.499 33.5c27.333 0 53 -3.33301 77 -10s45.5 -15.334 64.5 -26.001s35.667 -22.667 50 -36s25.5 -26.333 33.5 -39l10 110l88 -8v-255z" />
    <glyph glyph-name="ordfeminine" unicode="&#xaa;" horiz-adv-x="1060" 
d="M896 224c0 -34.667 1.16797 -61.1689 3.50098 -79.502s6.83301 -31.666 13.5 -39.999s16.167 -13 28.5 -14s28.5 -1.5 48.5 -1.5h45v-89c-52.667 0 -104.834 -0.333008 -156.501 -1s-99.834 -1.66699 -144.501 -3v137c-40 -51.333 -87.5 -89.833 -142.5 -115.5
s-119.167 -38.5 -192.5 -38.5c-48 0 -91.333 6.83301 -130 20.5s-71.667 32.5 -99 56.5s-48.5 52.667 -63.5 86s-22.5 70 -22.5 110c0 42.667 8.66699 81.5 26 116.5s42.666 64.833 75.999 89.5s73.833 43.834 121.5 57.501s102.167 20.5 163.5 20.5
c42 0 84.333 -3.16699 127 -9.5s86 -15.166 130 -26.499v144c0 60.667 -20.167 107 -60.5 139s-102.166 48 -185.499 48c-70 0 -124.833 -13.5 -164.5 -40.5s-66.167 -68.833 -79.5 -125.5l-92 11l13 176c42.667 19.333 92.5 35.166 149.5 47.499s121.167 18.5 192.5 18.5
c70.667 0 131 -6.33301 181 -19s90.833 -32 122.5 -58s54.834 -59.167 69.501 -99.5s22 -87.833 22 -142.5v-375zM509.001 451.998c-40 0 -76.002 -4.49805 -108.002 -13.498s-59.167 -21.833 -81.5 -38.5s-39.5 -37 -51.5 -61s-18 -51.333 -18 -82
c0 -27.333 4.83301 -51.5 14.5 -72.5s23.334 -38.833 41.001 -53.5s38.834 -26.334 63.501 -35.001s51.667 -12.667 81 -12c32 -0.666992 64.5 4.16602 97.5 14.499s62.833 25 89.5 44s48.5 43 65.5 72s25.5 63.833 25.5 104.5v98c-40 11.333 -78 20 -114 26s-71 9 -105 9z
" />
    <glyph glyph-name="guillemotleft" unicode="&#xab;" horiz-adv-x="1003" 
d="M516 841l-270 -392l270 -390h-167l-267 390l267 392h167zM940 841l-271 -392l271 -390h-167l-257 390l257 392h167z" />
    <glyph glyph-name="logicalnot" unicode="&#xac;" horiz-adv-x="1536" 
d="M1338 349h-121v422h-1020v121h1141v-543z" />
    <glyph glyph-name="uni00AD" unicode="&#xad;" horiz-adv-x="741" 
d="M75 541h589v-138h-589v138z" />
    <glyph glyph-name="registered" unicode="&#xae;" horiz-adv-x="1666" 
d="M1193 376l-0.00195312 -62.0039h-96c-22 0 -40.667 4.33301 -56 13s-28.166 19.834 -38.499 33.501s-18.833 29.167 -25.5 46.5s-12.5 34.833 -17.5 52.5s-9.5 34.334 -13.5 50.001s-8.66699 29.167 -14 40.5c-19.333 40.667 -45.5 68.667 -78.5 84s-76.167 23 -129.5 23
h-48v-265c0 -8.66699 4.33301 -15.5 13 -20.5s25.667 -8.83301 51 -11.5v-62h-252v62c25.333 3.33301 42.5 8 51.5 14s13.5 14.333 13.5 25v606c0 12 -4.16699 21.667 -12.5 29s-25.833 13 -52.5 17v30h295c54.667 0 104.834 -3.16699 150.501 -9.5
s84.834 -17.166 117.501 -32.499s58.167 -36.166 76.5 -62.499s27.5 -59.833 27.5 -100.5c0 -52.667 -21.5 -97 -64.5 -133s-106.167 -60 -189.5 -72c44 -14 79.667 -32 107 -54s48.666 -54 63.999 -96c4 -10 8 -23.167 12 -39.5s9.33301 -32.333 16 -48
s14.667 -29.167 24 -40.5s21 -17 35 -17h34zM675.998 720.996c14.667 0 31.333 -0.166992 50 -0.5s35.667 -0.5 51 -0.5c82 0 142.667 12.167 182 36.5s59 62.5 59 114.5c0 50 -17 86.5 -51 109.5s-88 34.5 -162 34.5c-13.333 0 -27.333 -0.166992 -42 -0.5
s-28.667 -0.5 -42 -0.5h-45v-293zM833.997 1402c70 0 136.667 -8.83203 200 -26.499s122.166 -42.5 176.499 -74.5s103.5 -70.167 147.5 -114.5s81.5 -93 112.5 -146s54.833 -109.667 71.5 -170s25 -122.5 25 -186.5c0 -64.667 -8.83301 -127.334 -26.5 -188.001
s-42.5 -117.5 -74.5 -170.5s-70.333 -101.333 -115 -145s-94.334 -81 -149.001 -112s-113.334 -55.167 -176.001 -72.5s-128 -26 -196 -26c-66.667 0 -131.167 8.66699 -193.5 26s-120.5 41.5 -174.5 72.5s-103.333 68.333 -148 112s-83 92 -115 145
s-56.667 109.833 -74 170.5s-26 123.667 -26 189s8.83301 128.5 26.5 189.5s42.334 118.167 74.001 171.5s69.834 101.833 114.501 145.5s94.334 81.167 149.001 112.5s113.167 55.5 175.5 72.5s127.5 25.5 195.5 25.5zM1470 684.997
c0 89.333 -17.3301 172.332 -51.9971 248.999s-81.334 143 -140.001 199s-126.334 100 -203.001 132s-157.334 48 -242.001 48c-58.667 0 -115.167 -7.66699 -169.5 -23s-105.166 -36.666 -152.499 -63.999s-90.5 -60.166 -129.5 -98.499s-72.333 -80.833 -100 -127.5
s-49.167 -96.667 -64.5 -150s-23 -108.333 -23 -165c0 -58 7.66699 -113.667 23 -167s37 -103.166 65 -149.499s61.5 -88.5 100.5 -126.5s82.167 -70.5 129.5 -97.5s98 -47.833 152 -62.5s110 -22 168 -22c59.333 0 116.166 7.66699 170.499 23
s105.166 36.666 152.499 63.999s90.333 60.166 129 98.499s71.834 80.666 99.501 126.999s49 95.833 64 148.5s22.5 107.334 22.5 164.001z" />
    <glyph glyph-name="macron" unicode="&#xaf;" horiz-adv-x="682" 
d="M-11 1274h705v-75h-705v75z" />
    <glyph glyph-name="degree" unicode="&#xb0;" horiz-adv-x="743" 
d="M372 1398c40.667 0 78.667 -7.50195 114 -22.502s66.333 -35.5 93 -61.5s47.667 -56.333 63 -91s23 -71.667 23 -111s-7.66699 -76.333 -23 -111s-36.333 -65 -63 -91s-57.834 -46.5 -93.501 -61.5s-73.834 -22.5 -114.501 -22.5s-78.667 7.5 -114 22.5
s-66.166 35.333 -92.499 61s-47.166 55.834 -62.499 90.501s-23 72 -23 112s7.66699 77.333 23 112s36.166 64.834 62.499 90.501s57.333 46 93 61s73.834 22.5 114.501 22.5zM572 1112c0 22 -4.66504 44.667 -13.998 68s-22.666 44.5 -39.999 63.5s-38.333 34.5 -63 46.5
s-52.334 18 -83.001 18c-28.667 0 -55.334 -5.33301 -80.001 -16s-46 -25 -64 -43s-32.167 -38.833 -42.5 -62.5s-15.5 -48.5 -15.5 -74.5s5 -50.833 15 -74.5s24 -44.667 42 -63s39.333 -32.833 64 -43.5s51.667 -16 81 -16c26.667 0 52.167 5.16699 76.5 15.5
s45.666 24.333 63.999 42s32.833 38.5 43.5 62.5s16 49.667 16 77z" />
    <glyph glyph-name="plusminus" unicode="&#xb1;" horiz-adv-x="1536" 
d="M830 846h508v-120h-508v-398h-123v398h-510v120h510v398h123v-398zM1338 5h-1141v119h1141v-119z" />
    <glyph glyph-name="twosuperior" unicode="&#xb2;" horiz-adv-x="1142" 
d="M130 0c-0.666992 4.66699 -0.996094 9.49707 -0.996094 14.4971v15.5c0 62.667 9.16699 116.334 27.5 161.001s43.166 84.334 74.499 119.001s68 66.667 110 96l134 91c22 14.667 41 28.834 57 42.501s29.167 27.834 39.5 42.501s18.166 30.334 23.499 47.001s8 35 8 55
c0 24 -4.33301 45.667 -13 65s-21 35.833 -37 49.5s-35 24.167 -57 31.5s-46.333 11 -73 11c-37.333 0 -68.333 -4.16699 -93 -12.5s-44.5 -20.333 -59.5 -36s-25.667 -35 -32 -58s-9.5 -49.167 -9.5 -78.5l-79 2v170c34 27.333 74.167 47.833 120.5 61.5
s103.833 20.5 172.5 20.5c87.333 0 154.666 -20.833 201.999 -62.5s71 -100.167 71 -175.5c0 -34.667 -5.5 -64.5 -16.5 -89.5s-27.5 -48.667 -49.5 -71s-49.833 -45 -83.5 -68l-118.5 -79.5c-42 -28 -76.667 -54.667 -104 -80s-49 -49.833 -65 -73.5
s-27.167 -46.334 -33.5 -68.001s-9.5 -42.5 -9.5 -62.5h360c11.333 0 20.166 2.16699 26.499 6.5s11 13.166 14 26.499s5 32 6 56s1.5 55.667 1.5 95h72v-264h-586z" />
    <glyph glyph-name="threesuperior" unicode="&#xb3;" horiz-adv-x="1142" 
d="M200 263c0 -70.667 17.999 -123.168 53.999 -157.501s89.333 -51.5 160 -51.5c25.333 0 50.166 3.66699 74.499 11s46 18.833 65 34.5s34.333 35.334 46 59.001s17.5 51.5 17.5 83.5c0 36 -6.83301 66.167 -20.5 90.5s-32.167 43.833 -55.5 58.5s-50.333 25.167 -81 31.5
s-63 9.5 -97 9.5v75c33.333 0.666992 63.666 4.83398 90.999 12.501s50.666 18.834 69.999 33.501s34.333 32.667 45 54s16 46.333 16 75c0 24 -4.33301 45.833 -13 65.5s-21 36.5 -37 50.5s-35.167 24.833 -57.5 32.5s-47.166 11.5 -74.499 11.5
c-64 0 -109.167 -16 -135.5 -48s-39.833 -77 -40.5 -135l-81 1v176c35.333 25.333 75 44.166 119 56.499s91.333 18.5 142 18.5c45.333 0 85.833 -5.33301 121.5 -16s66 -25.834 91 -45.501s44 -43.834 57 -72.501s19.5 -61 19.5 -97c0 -106.667 -57.333 -174.667 -172 -204
c30 -6 57.833 -15 83.5 -27s47.667 -27.5 66 -46.5s32.666 -41.833 42.999 -68.5s15.5 -57.667 15.5 -93c0 -41.333 -7.5 -78.166 -22.5 -110.499s-36.667 -60 -65 -83s-62.666 -40.5 -102.999 -52.5s-85.833 -18 -136.5 -18c-43.333 0 -82.666 6.16699 -117.999 18.5
s-65.666 30.5 -90.999 54.5s-45.166 53.833 -59.499 89.5s-21.5 76.5 -21.5 122.5z" />
    <glyph glyph-name="acute" unicode="&#xb4;" 
d="M457 1271c8 10.667 17.167 20.998 27.5 30.998s21.333 18.833 33 26.5s23.667 13.834 36 18.501s24.5 7 36.5 7c17.333 0 32 -3.16699 44 -9.5s18 -14.833 18 -25.5c0 -9.33301 -5 -18.666 -15 -27.999l-283 -262h-84z" />
    <glyph glyph-name="mu" unicode="&#xb5;" horiz-adv-x="1145" 
d="M233 -413c-18.667 0 -35.999 7.66309 -51.999 22.9961s-24 38.333 -24 69c0 38 1.5 83.833 4.5 137.5l9.5 171.5c3.33301 60.667 6.33301 123.334 9 188.001s4 127 4 187l-1 375c0 16.667 -1.5 29.667 -4.5 39s-9.5 16 -19.5 20s-24.5 6.33301 -43.5 7s-44.167 1 -75.5 1
v88h82c25.333 0 50.166 0.166992 74.499 0.5s49 1 74 2s51.833 2.16699 80.5 3.5v-528c0 -42 1.83301 -80.167 5.5 -114.5s11.667 -63.666 24 -87.999s30 -43.166 53 -56.499s53.833 -20 92.5 -20c36 0 69.167 3.83301 99.5 11.5s57.833 18.167 82.5 31.5
s46.334 29.166 65.001 47.499s34.334 38.166 47.001 59.499c0.666992 0.666992 1 7 1 19s0.166992 26.833 0.5 44.5s0.5 36.834 0.5 57.501v58v45v20v247c0 18 -1.5 31.833 -4.5 41.5s-9.66699 16.834 -20 21.501s-25.166 7.33398 -44.499 8.00098s-45.333 1 -78 1v88
c50.667 0 102.5 0.333008 155.5 1s106.167 2.66699 159.5 6v-760c0 -12 1.66699 -21.5 5 -28.5s10.166 -12.167 20.499 -15.5s24.833 -5.33301 43.5 -6s43.334 -1 74.001 -1v-89c-60 0 -114.333 -0.333008 -163 -1s-95.667 -1.66699 -141 -3v134
c-46 -50.667 -99.333 -88.334 -160 -113.001s-126.334 -37 -197.001 -37c-34.667 0 -64.834 2.83301 -90.501 8.5s-48.167 14.167 -67.5 25.5c1.33301 -39.333 2.33301 -81 3 -125s1 -84.333 1 -121c0 -33.333 -1.33301 -61.5 -4 -84.5s-7.33398 -41.667 -14.001 -56
s-15.5 -24.666 -26.5 -30.999s-24.5 -9.5 -40.5 -9.5z" />
    <glyph glyph-name="paragraph" unicode="&#xb6;" horiz-adv-x="1214" 
d="M985 1284l0.000976562 -1497h-125v1497h-218v-1497h-126v860c-70 1.33301 -131.5 12 -184.5 32s-97.333 47 -133 81s-62.667 73.833 -81 119.5s-27.5 95.167 -27.5 148.5c0 59.333 11 112.166 33 158.499s53.333 85.5 94 117.5s89.167 56.333 145.5 73
s119.166 25 188.499 25h591v-118h-157z" />
    <glyph glyph-name="periodcentered" unicode="&#xb7;" horiz-adv-x="560" 
d="M271 894c18.667 0 34.835 -2.5 48.502 -7.5s25 -11.667 34 -20s15.5 -17.833 19.5 -28.5s6 -22 6 -34c0 -24 -8.33301 -45.167 -25 -63.5s-44.334 -27.5 -83.001 -27.5s-66.167 8.83301 -82.5 26.5s-24.5 39.167 -24.5 64.5c0 12 2 23.333 6 34s10.333 20.167 19 28.5
s19.667 15 33 20s29.666 7.5 48.999 7.5z" />
    <glyph glyph-name="cedilla" unicode="&#xb8;" 
d="M451 -6l-5.99707 -89.998c0.666992 0 3.5 0.166992 8.5 0.5s9.16699 0.5 12.5 0.5c27.333 0 52 -4 74 -12s40.667 -19 56 -33s27.166 -30.833 35.499 -50.5s12.5 -41.167 12.5 -64.5c0 -28 -5.83301 -52.667 -17.5 -74s-28.334 -39 -50.001 -53s-47.667 -24.5 -78 -31.5
s-64.5 -10.5 -102.5 -10.5c-27.333 0 -55.5 2.16699 -84.5 6.5s-62.5 13.166 -100.5 26.499l19 71c28 -10.667 54.333 -18.334 79 -23.001s47.667 -7 69 -7c44 0 77.667 7.66699 101 23s35 39 35 71c0 28 -10.833 48.333 -32.5 61s-52.834 19.667 -93.501 21h-9.5
c-3 0 -6.16699 -0.333008 -9.5 -1l14 169h68z" />
    <glyph glyph-name="onesuperior" unicode="&#xb9;" horiz-adv-x="1142" 
d="M549 872l-0.000976562 -765c0 -8 0.5 -14.5 1.5 -19.5s4.33301 -9 10 -12s14.667 -5 27 -6s29.833 -1.5 52.5 -1.5h46v-68h-44h-44c-15.333 0 -31.5 0.166992 -48.5 0.5s-35.833 0.5 -56.5 0.5h-62c-18 0 -34.5 -0.166992 -49.5 -0.5s-29.667 -0.5 -44 -0.5h-46.5v68h71
c18.667 0 33 1 43 3s17.333 4.83301 22 8.5s7.33398 8 8.00098 13s1 10.5 1 16.5v689c-28 -14 -55.833 -25.833 -83.5 -35.5s-55.167 -17.5 -82.5 -23.5v86c36 6.66699 71 16 105 28s68.333 26.333 103 43z" />
    <glyph glyph-name="ordmasculine" unicode="&#xba;" horiz-adv-x="771" 
d="M384 1311c50 0 95.5 -7.33301 136.5 -22s76.167 -35.5 105.5 -62.5s52 -59.333 68 -97s24 -79.834 24 -126.501s-8 -89 -24 -127s-38.5 -70.5 -67.5 -97.5s-63.833 -47.833 -104.5 -62.5s-86 -22 -136 -22s-95.5 7.33301 -136.5 22s-76 35.5 -105 62.5
s-51.5 59.5 -67.5 97.5s-24 80.333 -24 127s7.83301 88.834 23.5 126.501s38 70 67 97s63.833 47.833 104.5 62.5s86 22 136 22zM386 1243c-65.333 0 -116.667 -21.334 -154 -64.001s-56 -101.334 -56 -176.001c0 -37.333 4.83301 -70.666 14.5 -99.999
s23.667 -54.5 42 -75.5s40.5 -37 66.5 -48s55 -16.5 87 -16.5s60.833 5.66699 86.5 17s47.5 27.333 65.5 48s31.833 45.834 41.5 75.501s14.5 63.167 14.5 100.5c0 74 -18.5 132.333 -55.5 175s-87.833 64 -152.5 64z" />
    <glyph glyph-name="guillemotright" unicode="&#xbb;" horiz-adv-x="1003" 
d="M249 841l257 -392l-257 -390h-167l271 390l-271 392h167zM673 841l267 -392l-267 -390h-167l270 390l-270 392h167z" />
    <glyph glyph-name="onequarter" unicode="&#xbc;" horiz-adv-x="2064" 
d="M549 1267l-0.000976562 -765c0 -8 0.5 -14.5 1.5 -19.5s4.33301 -9 10 -12s14.667 -5 27 -6s29.833 -1.5 52.5 -1.5h46v-68h-44h-44c-15.333 0 -31.5 0.166992 -48.5 0.5s-35.833 0.5 -56.5 0.5h-62c-18 0 -34.5 -0.166992 -49.5 -0.5s-29.667 -0.5 -44 -0.5h-46.5v68h71
c18.667 0 33 1 43 3s17.333 4.83301 22 8.5s7.33398 8 8.00098 13s1 10.5 1 16.5v689c-28 -14 -55.833 -25.833 -83.5 -35.5s-55.167 -17.5 -82.5 -23.5v86c36 6.66699 71 16 105 28s68.333 26.333 103 43zM1307 1304l-497 -1409h-124l497 1409h124zM1693 896v-558.999h150
v-73h-150v-156c0 -8 0.333008 -14.833 1 -20.5s3.33398 -10.334 8.00098 -14.001s11.667 -6.16699 21 -7.5s23 -2 41 -2h37v-64c-22.667 0 -49.667 0.166992 -81 0.5s-66 0.5 -104 0.5h-48.5c-14.333 0 -27.5 -0.166992 -39.5 -0.5s-23.5 -0.5 -34.5 -0.5h-34.5v64h45
c19.333 0 34.666 0.5 45.999 1.5s20 2.83301 26 5.5s9.83301 6.16699 11.5 10.5s2.5 9.83301 2.5 16.5v166h-389c-4 32.667 -10 62.667 -18 90l385 542h125zM1261 336.001h330v472h-1z" />
    <glyph glyph-name="onehalf" unicode="&#xbd;" horiz-adv-x="2064" 
d="M549 1267l-0.000976562 -765c0 -8 0.5 -14.5 1.5 -19.5s4.33301 -9 10 -12s14.667 -5 27 -6s29.833 -1.5 52.5 -1.5h46v-68h-44h-44c-15.333 0 -31.5 0.166992 -48.5 0.5s-35.833 0.5 -56.5 0.5h-62c-18 0 -34.5 -0.166992 -49.5 -0.5s-29.667 -0.5 -44 -0.5h-46.5v68h71
c18.667 0 33 1 43 3s17.333 4.83301 22 8.5s7.33398 8 8.00098 13s1 10.5 1 16.5v689c-28 -14 -55.833 -25.833 -83.5 -35.5s-55.167 -17.5 -82.5 -23.5v86c36 6.66699 71 16 105 28s68.333 26.333 103 43zM1281 1304l-497 -1409h-124l497 1409h124zM1223 0
c-0.666992 4.66699 -0.996094 9.49707 -0.996094 14.4971v15.5c0 62.667 9.16699 116.334 27.5 161.001s43.166 84.334 74.499 119.001s68 66.667 110 96l134 91c22 14.667 41 28.834 57 42.501s29.167 27.834 39.5 42.501s18.166 30.334 23.499 47.001s8 35 8 55
c0 24 -4.33301 45.667 -13 65s-21 35.833 -37 49.5s-35 24.167 -57 31.5s-46.333 11 -73 11c-37.333 0 -68.333 -4.16699 -93 -12.5s-44.5 -20.333 -59.5 -36s-25.667 -35 -32 -58s-9.5 -49.167 -9.5 -78.5l-79 2v170c34 27.333 74.167 47.833 120.5 61.5
s103.833 20.5 172.5 20.5c87.333 0 154.666 -20.833 201.999 -62.5s71 -100.167 71 -175.5c0 -34.667 -5.5 -64.5 -16.5 -89.5s-27.5 -48.667 -49.5 -71s-49.833 -45 -83.5 -68l-118.5 -79.5c-42 -28 -76.667 -54.667 -104 -80s-49 -49.833 -65 -73.5
s-27.167 -46.334 -33.5 -68.001s-9.5 -42.5 -9.5 -62.5h360c11.333 0 20.166 2.16699 26.499 6.5s11 13.166 14 26.499s5 32 6 56s1.5 55.667 1.5 95h72v-264h-586z" />
    <glyph glyph-name="threequarters" unicode="&#xbe;" horiz-adv-x="2064" 
d="M200 658c0 -70.667 17.999 -123.168 53.999 -157.501s89.333 -51.5 160 -51.5c25.333 0 50.166 3.66699 74.499 11s46 18.833 65 34.5s34.333 35.334 46 59.001s17.5 51.5 17.5 83.5c0 36 -6.83301 66.167 -20.5 90.5s-32.167 43.833 -55.5 58.5s-50.333 25.167 -81 31.5
s-63 9.5 -97 9.5v75c33.333 0.666992 63.666 4.83398 90.999 12.501s50.666 18.834 69.999 33.501s34.333 32.667 45 54s16 46.333 16 75c0 24 -4.33301 45.833 -13 65.5s-21 36.5 -37 50.5s-35.167 24.833 -57.5 32.5s-47.166 11.5 -74.499 11.5
c-64 0 -109.167 -16 -135.5 -48s-39.833 -77 -40.5 -135l-81 1v176c35.333 25.333 75 44.166 119 56.499s91.333 18.5 142 18.5c45.333 0 85.833 -5.33301 121.5 -16s66 -25.834 91 -45.501s44 -43.834 57 -72.501s19.5 -61 19.5 -97c0 -106.667 -57.333 -174.667 -172 -204
c30 -6 57.833 -15 83.5 -27s47.667 -27.5 66 -46.5s32.666 -41.833 42.999 -68.5s15.5 -57.667 15.5 -93c0 -41.333 -7.5 -78.166 -22.5 -110.499s-36.667 -60 -65 -83s-62.666 -40.5 -102.999 -52.5s-85.833 -18 -136.5 -18c-43.333 0 -82.666 6.16699 -117.999 18.5
s-65.666 30.5 -90.999 54.5s-45.166 53.833 -59.499 89.5s-21.5 76.5 -21.5 122.5zM1307 1304l-497 -1409h-124l497 1409h124zM1693 895.999v-558.999h150v-73h-150v-156c0 -8 0.333008 -14.833 1 -20.5s3.33398 -10.334 8.00098 -14.001s11.667 -6.16699 21 -7.5
s23 -2 41 -2h37v-64c-22.667 0 -49.667 0.166992 -81 0.5s-66 0.5 -104 0.5h-48.5c-14.333 0 -27.5 -0.166992 -39.5 -0.5s-23.5 -0.5 -34.5 -0.5h-34.5v64h45c19.333 0 34.666 0.5 45.999 1.5s20 2.83301 26 5.5s9.83301 6.16699 11.5 10.5s2.5 9.83301 2.5 16.5v166h-389
c-4 32.667 -10 62.667 -18 90l385 542h125zM1261 336h330v472h-1z" />
    <glyph glyph-name="questiondown" unicode="&#xbf;" horiz-adv-x="980" 
d="M492 364l-112.995 0.00390625c-0.666992 1.33301 -1.33398 7.33301 -2.00098 18s-1.33398 22.167 -2.00098 34.5s-1.16699 23.5 -1.5 33.5s-0.5 15.667 -0.5 17c0 36.667 5.16699 68.5 15.5 95.5s24 50.833 41 71.5s36.333 39 58 55s44 31.333 67 46s45.333 29.667 67 45
s41 32.5 58 51.5s30.667 40.833 41 65.5s15.5 53.667 15.5 87c0 34.667 -6.5 66.167 -19.5 94.5s-31.333 52.666 -55 72.999s-52 36 -85 47s-69.5 16.5 -109.5 16.5c-90.667 0 -156.834 -22 -198.501 -66s-62.834 -111 -63.501 -201h-116l5 252
c50.667 36.667 107.834 65 171.501 85s132.167 30 205.5 30c67.333 0 127.666 -7.33301 180.999 -22s98.666 -35.5 135.999 -62.5s66 -59.5 86 -97.5s30 -80.667 30 -128c0 -53.333 -8.33301 -98.333 -25 -135s-38 -68.334 -64 -95.001s-54.667 -50.334 -86 -71.001
s-61.833 -42.334 -91.5 -65.001s-56.5 -48 -80.5 -76s-41.667 -62.333 -53 -103zM440.005 172.004c18.667 0 34.835 -2.5 48.502 -7.5s25 -11.667 34 -20s15.5 -17.833 19.5 -28.5s6 -22 6 -34c0 -24 -8.33301 -45.167 -25 -63.5s-44.334 -27.5 -83.001 -27.5
s-66.167 8.83301 -82.5 26.5s-24.5 39.167 -24.5 64.5c0 12 2 23.333 6 34s10.333 20.167 19 28.5s19.667 15 33 20s29.666 7.5 48.999 7.5z" />
    <glyph glyph-name="Agrave" unicode="&#xc0;" horiz-adv-x="1383" 
d="M810 1290l17 -45l45 -119l64.5 -168.5l74 -194l74 -194.5l65.5 -170.5l47 -123c12 -31.667 18.333 -48.5 19 -50.5c12 -31.333 21.833 -55.5 29.5 -72.5s17.167 -29.5 28.5 -37.5s26.833 -12.833 46.5 -14.5s47.5 -2.5 83.5 -2.5v-98c-37.333 -0 -74.333 0.333008 -111 1
s-74.667 1 -114 1h-62h-62c-21.333 0 -44 -0.166992 -68 -0.5s-51 -0.833008 -81 -1.5c0 5.33301 -0.166992 13.5 -0.5 24.5s-0.5 21.833 -0.5 32.5v39c30.667 0 55.667 0.166992 75 0.5s34.666 1.33301 45.999 3s19.166 4.33398 23.499 8.00098s6.5 8.83398 6.5 15.501
c-1.33301 3.33301 -2.33301 7.66602 -3 12.999s-2 11.666 -4 18.999l-106 318h-523c-0.666992 -1.33301 -3.66699 -9.83301 -9 -25.5l-20 -58l-26 -74.5l-26.5 -74.5l-20.5 -58c-5.33301 -15.667 -8 -23.834 -8 -24.501c-6.66699 -16.667 -10 -28.667 -10 -36
c0 -12.667 6.83301 -20.334 20.5 -23.001s36.5 -4 68.5 -4h72v-95c-37.333 0 -74.5 0.333008 -111.5 1s-74.5 1 -112.5 1h-57.5h-56.5c-19.333 0 -39.833 -0.166992 -61.5 -0.5s-45.834 -0.833008 -72.501 -1.5v99c33.333 0.666992 59.5 1.33398 78.5 2.00098
s33.833 3.33398 44.5 8.00098s18.834 11.667 24.501 21s11.834 23 18.501 41c0.666992 2 4.83398 12.833 12.501 32.5l30 77.5l42.5 111.5l51.5 134.5l56 145.5l55.5 145.5l51.5 134.5l43 111.5l29.5 77.5c7.33301 19.667 11.333 30.5 12 32.5l40 116h231zM458 574h448
l-224 622zM889 1424l-83 -0.000976562c-15.333 13.333 -33.333 28.166 -54 44.499l-65 51l-68 53.5c-22.667 18 -43 35.833 -61 53.5s-32.833 34.334 -44.5 50.001s-18.167 29.834 -19.5 42.501c0 10.667 7.33301 19.667 22 27s32 11 52 11c18 0 35.833 -3 53.5 -9
s30.167 -13.667 37.5 -23z" />
    <glyph glyph-name="Aacute" unicode="&#xc1;" horiz-adv-x="1383" 
d="M810 1290l17 -45l45 -119l64.5 -168.5l74 -194l74 -194.5l65.5 -170.5l47 -123c12 -31.667 18.333 -48.5 19 -50.5c12 -31.333 21.833 -55.5 29.5 -72.5s17.167 -29.5 28.5 -37.5s26.833 -12.833 46.5 -14.5s47.5 -2.5 83.5 -2.5v-98c-37.333 -0 -74.333 0.333008 -111 1
s-74.667 1 -114 1h-62h-62c-21.333 0 -44 -0.166992 -68 -0.5s-51 -0.833008 -81 -1.5c0 5.33301 -0.166992 13.5 -0.5 24.5s-0.5 21.833 -0.5 32.5v39c30.667 0 55.667 0.166992 75 0.5s34.666 1.33301 45.999 3s19.166 4.33398 23.499 8.00098s6.5 8.83398 6.5 15.501
c-1.33301 3.33301 -2.33301 7.66602 -3 12.999s-2 11.666 -4 18.999l-106 318h-523c-0.666992 -1.33301 -3.66699 -9.83301 -9 -25.5l-20 -58l-26 -74.5l-26.5 -74.5l-20.5 -58c-5.33301 -15.667 -8 -23.834 -8 -24.501c-6.66699 -16.667 -10 -28.667 -10 -36
c0 -12.667 6.83301 -20.334 20.5 -23.001s36.5 -4 68.5 -4h72v-95c-37.333 0 -74.5 0.333008 -111.5 1s-74.5 1 -112.5 1h-57.5h-56.5c-19.333 0 -39.833 -0.166992 -61.5 -0.5s-45.834 -0.833008 -72.501 -1.5v99c33.333 0.666992 59.5 1.33398 78.5 2.00098
s33.833 3.33398 44.5 8.00098s18.834 11.667 24.501 21s11.834 23 18.501 41c0.666992 2 4.83398 12.833 12.501 32.5l30 77.5l42.5 111.5l51.5 134.5l56 145.5l55.5 145.5l51.5 134.5l43 111.5l29.5 77.5c7.33301 19.667 11.333 30.5 12 32.5l40 116h231zM458 574h448
l-224 622zM685 1666c8 10.667 17.167 20.998 27.5 30.998s21.333 18.833 33 26.5s23.667 13.834 36 18.501s24.5 7 36.5 7c17.333 0 32 -3.16699 44 -9.5s18 -14.833 18 -25.5c0 -9.33301 -5 -18.666 -15 -27.999l-283 -262h-84z" />
    <glyph glyph-name="Acircumflex" unicode="&#xc2;" horiz-adv-x="1383" 
d="M810 1290l17 -45l45 -119l64.5 -168.5l74 -194l74 -194.5l65.5 -170.5l47 -123c12 -31.667 18.333 -48.5 19 -50.5c12 -31.333 21.833 -55.5 29.5 -72.5s17.167 -29.5 28.5 -37.5s26.833 -12.833 46.5 -14.5s47.5 -2.5 83.5 -2.5v-98c-37.333 -0 -74.333 0.333008 -111 1
s-74.667 1 -114 1h-62h-62c-21.333 0 -44 -0.166992 -68 -0.5s-51 -0.833008 -81 -1.5c0 5.33301 -0.166992 13.5 -0.5 24.5s-0.5 21.833 -0.5 32.5v39c30.667 0 55.667 0.166992 75 0.5s34.666 1.33301 45.999 3s19.166 4.33398 23.499 8.00098s6.5 8.83398 6.5 15.501
c-1.33301 3.33301 -2.33301 7.66602 -3 12.999s-2 11.666 -4 18.999l-106 318h-523c-0.666992 -1.33301 -3.66699 -9.83301 -9 -25.5l-20 -58l-26 -74.5l-26.5 -74.5l-20.5 -58c-5.33301 -15.667 -8 -23.834 -8 -24.501c-6.66699 -16.667 -10 -28.667 -10 -36
c0 -12.667 6.83301 -20.334 20.5 -23.001s36.5 -4 68.5 -4h72v-95c-37.333 0 -74.5 0.333008 -111.5 1s-74.5 1 -112.5 1h-57.5h-56.5c-19.333 0 -39.833 -0.166992 -61.5 -0.5s-45.834 -0.833008 -72.501 -1.5v99c33.333 0.666992 59.5 1.33398 78.5 2.00098
s33.833 3.33398 44.5 8.00098s18.834 11.667 24.501 21s11.834 23 18.501 41c0.666992 2 4.83398 12.833 12.501 32.5l30 77.5l42.5 111.5l51.5 134.5l56 145.5l55.5 145.5l51.5 134.5l43 111.5l29.5 77.5c7.33301 19.667 11.333 30.5 12 32.5l40 116h231zM458 574h448
l-224 622zM755 1745l239 -317h-86l-220 195l-216 -195h-83l230 317h136z" />
    <glyph glyph-name="Atilde" unicode="&#xc3;" horiz-adv-x="1383" 
d="M810 1290l17 -45l45 -119l64.5 -168.5l74 -194l74 -194.5l65.5 -170.5l47 -123c12 -31.667 18.333 -48.5 19 -50.5c12 -31.333 21.833 -55.5 29.5 -72.5s17.167 -29.5 28.5 -37.5s26.833 -12.833 46.5 -14.5s47.5 -2.5 83.5 -2.5v-98c-37.333 -0 -74.333 0.333008 -111 1
s-74.667 1 -114 1h-62h-62c-21.333 0 -44 -0.166992 -68 -0.5s-51 -0.833008 -81 -1.5c0 5.33301 -0.166992 13.5 -0.5 24.5s-0.5 21.833 -0.5 32.5v39c30.667 0 55.667 0.166992 75 0.5s34.666 1.33301 45.999 3s19.166 4.33398 23.499 8.00098s6.5 8.83398 6.5 15.501
c-1.33301 3.33301 -2.33301 7.66602 -3 12.999s-2 11.666 -4 18.999l-106 318h-523c-0.666992 -1.33301 -3.66699 -9.83301 -9 -25.5l-20 -58l-26 -74.5l-26.5 -74.5l-20.5 -58c-5.33301 -15.667 -8 -23.834 -8 -24.501c-6.66699 -16.667 -10 -28.667 -10 -36
c0 -12.667 6.83301 -20.334 20.5 -23.001s36.5 -4 68.5 -4h72v-95c-37.333 0 -74.5 0.333008 -111.5 1s-74.5 1 -112.5 1h-57.5h-56.5c-19.333 0 -39.833 -0.166992 -61.5 -0.5s-45.834 -0.833008 -72.501 -1.5v99c33.333 0.666992 59.5 1.33398 78.5 2.00098
s33.833 3.33398 44.5 8.00098s18.834 11.667 24.501 21s11.834 23 18.501 41c0.666992 2 4.83398 12.833 12.501 32.5l30 77.5l42.5 111.5l51.5 134.5l56 145.5l55.5 145.5l51.5 134.5l43 111.5l29.5 77.5c7.33301 19.667 11.333 30.5 12 32.5l40 116h231zM458 574h448
l-224 622zM1009 1690c-12.667 -63.333 -36.165 -112.334 -70.498 -147.001s-76.5 -52 -126.5 -52c-21.333 0 -43.666 3.83301 -66.999 11.5s-46.666 16 -69.999 25s-46 17.333 -68 25s-42.333 11.5 -61 11.5c-26 0 -47.333 -7.16699 -64 -21.5
s-30.334 -37.166 -41.001 -68.499h-66c31.333 134.667 95.333 202 192 202c22 0 44.667 -3.83301 68 -11.5s46.666 -16.167 69.999 -25.5s46.166 -17.833 68.499 -25.5s44.166 -11.5 65.499 -11.5c48.667 0 83.667 29.333 105 88h65z" />
    <glyph glyph-name="Adieresis" unicode="&#xc4;" horiz-adv-x="1383" 
d="M810 1290l17 -45l45 -119l64.5 -168.5l74 -194l74 -194.5l65.5 -170.5l47 -123c12 -31.667 18.333 -48.5 19 -50.5c12 -31.333 21.833 -55.5 29.5 -72.5s17.167 -29.5 28.5 -37.5s26.833 -12.833 46.5 -14.5s47.5 -2.5 83.5 -2.5v-98c-37.333 -0 -74.333 0.333008 -111 1
s-74.667 1 -114 1h-62h-62c-21.333 0 -44 -0.166992 -68 -0.5s-51 -0.833008 -81 -1.5c0 5.33301 -0.166992 13.5 -0.5 24.5s-0.5 21.833 -0.5 32.5v39c30.667 0 55.667 0.166992 75 0.5s34.666 1.33301 45.999 3s19.166 4.33398 23.499 8.00098s6.5 8.83398 6.5 15.501
c-1.33301 3.33301 -2.33301 7.66602 -3 12.999s-2 11.666 -4 18.999l-106 318h-523c-0.666992 -1.33301 -3.66699 -9.83301 -9 -25.5l-20 -58l-26 -74.5l-26.5 -74.5l-20.5 -58c-5.33301 -15.667 -8 -23.834 -8 -24.501c-6.66699 -16.667 -10 -28.667 -10 -36
c0 -12.667 6.83301 -20.334 20.5 -23.001s36.5 -4 68.5 -4h72v-95c-37.333 0 -74.5 0.333008 -111.5 1s-74.5 1 -112.5 1h-57.5h-56.5c-19.333 0 -39.833 -0.166992 -61.5 -0.5s-45.834 -0.833008 -72.501 -1.5v99c33.333 0.666992 59.5 1.33398 78.5 2.00098
s33.833 3.33398 44.5 8.00098s18.834 11.667 24.501 21s11.834 23 18.501 41c0.666992 2 4.83398 12.833 12.501 32.5l30 77.5l42.5 111.5l51.5 134.5l56 145.5l55.5 145.5l51.5 134.5l43 111.5l29.5 77.5c7.33301 19.667 11.333 30.5 12 32.5l40 116h231zM458 574h448
l-224 622zM878 1669c28 0 50.334 -8.00098 67.001 -24.001s25 -37.667 25 -65c0 -26.667 -8.33301 -48.167 -25 -64.5s-39.334 -24.5 -68.001 -24.5c-28 0 -50.167 8.33301 -66.5 25s-24.5 38.334 -24.5 65.001s8.33301 48 25 64s39 24 67 24zM505.001 1669
c28 0 50.167 -7.83398 66.5 -23.501s24.5 -37.5 24.5 -65.5c0 -26.667 -8.16699 -48.167 -24.5 -64.5s-38.833 -24.5 -67.5 -24.5c-28 0 -50.167 8.33301 -66.5 25s-24.5 38.334 -24.5 65.001s8.33301 48 25 64s39 24 67 24z" />
    <glyph glyph-name="Aring" unicode="&#xc5;" horiz-adv-x="1383" 
d="M810 1290l17 -45l45 -119l64.5 -168.5l74 -194l74 -194.5l65.5 -170.5l47 -123c12 -31.667 18.333 -48.5 19 -50.5c12 -31.333 21.833 -55.5 29.5 -72.5s17.167 -29.5 28.5 -37.5s26.833 -12.833 46.5 -14.5s47.5 -2.5 83.5 -2.5v-98c-37.333 -0 -74.333 0.333008 -111 1
s-74.667 1 -114 1h-62h-62c-21.333 0 -44 -0.166992 -68 -0.5s-51 -0.833008 -81 -1.5c0 5.33301 -0.166992 13.5 -0.5 24.5s-0.5 21.833 -0.5 32.5v39c30.667 0 55.667 0.166992 75 0.5s34.666 1.33301 45.999 3s19.166 4.33398 23.499 8.00098s6.5 8.83398 6.5 15.501
c-1.33301 3.33301 -2.33301 7.66602 -3 12.999s-2 11.666 -4 18.999l-106 318h-523c-0.666992 -1.33301 -3.66699 -9.83301 -9 -25.5l-20 -58l-26 -74.5l-26.5 -74.5l-20.5 -58c-5.33301 -15.667 -8 -23.834 -8 -24.501c-6.66699 -16.667 -10 -28.667 -10 -36
c0 -12.667 6.83301 -20.334 20.5 -23.001s36.5 -4 68.5 -4h72v-95c-37.333 0 -74.5 0.333008 -111.5 1s-74.5 1 -112.5 1h-57.5h-56.5c-19.333 0 -39.833 -0.166992 -61.5 -0.5s-45.834 -0.833008 -72.501 -1.5v99c33.333 0.666992 59.5 1.33398 78.5 2.00098
s33.833 3.33398 44.5 8.00098s18.834 11.667 24.501 21s11.834 23 18.501 41c0.666992 2 4.83398 12.833 12.501 32.5l30 77.5l42.5 111.5l51.5 134.5l56 145.5l55.5 145.5l51.5 134.5l43 111.5l29.5 77.5c7.33301 19.667 11.333 30.5 12 32.5l40 116h231zM458 574h448
l-224 622zM691 1823c30.667 0 59.3311 -5.5 85.998 -16.5s49.834 -26 69.501 -45s35.167 -41.5 46.5 -67.5s17 -53.667 17 -83c0 -30 -5.66699 -58.167 -17 -84.5s-27 -49.166 -47 -68.499s-43.333 -34.5 -70 -45.5s-55 -16.5 -85 -16.5c-30.667 0 -59.167 5.5 -85.5 16.5
s-49.333 26.167 -69 45.5s-35.167 42.166 -46.5 68.499s-17 54.5 -17 84.5s5.66699 57.833 17 83.5s26.833 48 46.5 67s42.834 34 69.501 45s55 16.5 85 16.5zM690.997 1740c-18.667 0 -36.167 -3.33301 -52.5 -10s-30.5 -15.834 -42.5 -27.501s-21.333 -25.334 -28 -41.001
s-10 -32.5 -10 -50.5c0 -18.667 3.33301 -36 10 -52s16 -30 28 -42s26 -21.333 42 -28s33.667 -10 53 -10c18.667 0 36.167 3.33301 52.5 10s30.5 16 42.5 28s21.5 26 28.5 42s10.5 33.333 10.5 52c0 18 -3.5 34.833 -10.5 50.5s-16.5 29.334 -28.5 41.001
s-26.167 20.834 -42.5 27.501s-33.833 10 -52.5 10z" />
    <glyph glyph-name="AE" unicode="&#xc6;" horiz-adv-x="1897" 
d="M623 1070l137.996 220.002h1043v-328h-114v49c0 42 -1.33301 74.5 -4 97.5s-6.66699 39.833 -12 50.5s-12.666 16.834 -21.999 18.501s-20.333 2.5 -33 2.5h-534v-467h348c6 0 11.667 0.5 17 1.5s10.166 4 14.499 9s7.66602 13.167 9.99902 24.5s3.5 27.666 3.5 48.999
h80v-271h-80c0 21.333 -1.33301 37.666 -4 48.999s-6.16699 19.666 -10.5 24.999s-9.66602 8.5 -15.999 9.5s-12.833 1.5 -19.5 1.5h-343v-497h556c12.667 0 22.5 2 29.5 6s12.333 13.833 16 29.5s6 39 7 70s1.5 73.833 1.5 128.5h112v-348h-1108v99h64
c34.667 0 61.5 1.5 80.5 4.5s32.833 7 41.5 12s13.834 10.833 15.501 17.5s2.5 13.667 2.5 21v383h-452l-182 -316l-28.5 -51c-7.66699 -14 -11.5 -26 -11.5 -36c0 -12.667 6.66699 -21.667 20 -27s37.333 -8 72 -8h57v-99c-23.333 0.666992 -44.166 1.16699 -62.499 1.5
s-35.666 0.5 -51.999 0.5h-46.5h-46h-56.5h-57c-19.667 0 -40.5 -0.166992 -62.5 -0.5s-46.333 -0.833008 -73 -1.5v99c28.667 0 51.334 1.16699 68.001 3.5s31.5 8.33301 44.5 18s25.833 24.167 38.5 43.5l50 80zM510.996 642.002h391v541h-67z" />
    <glyph glyph-name="Ccedilla" unicode="&#xc7;" horiz-adv-x="1413" 
d="M792 91c68.667 0 129 5.49902 181 16.499s95.667 29.667 131 56s62 61.333 80 105s27.333 98.167 28 163.5l116 -20l-10 -260c-40 -34.667 -82.167 -63.334 -126.5 -86.001s-89.666 -40.667 -135.999 -54s-93.333 -22.666 -141 -27.999s-94.834 -8 -141.501 -8
c-108 0 -202.833 16 -284.5 48s-150.167 77.167 -205.5 135.5s-97 128.5 -125 210.5s-42 173 -42 273c0 102 16 194.167 48 276.5s77 152.833 135 211.5s127.5 103.834 208.5 135.501s170.833 47.5 269.5 47.5c75.333 0 146.333 -12 213 -36s124.667 -57.667 174 -101l11 99
h125v-359l-116 2c-4 46 -16.167 86.667 -36.5 122s-47.333 64.833 -81 88.5s-73.667 41.5 -120 53.5s-97.833 18 -154.5 18c-73.333 0 -139.5 -13 -198.5 -39s-109.333 -63 -151 -111s-73.834 -106.167 -96.501 -174.5s-34 -144.833 -34 -229.5
c0 -86 11.333 -163.333 34 -232s54.834 -127 96.501 -175s92 -84.833 151 -110.5s125.167 -38.5 198.5 -38.5zM730 -6.00098l-5.99707 -89.998c0.666992 0 3.5 0.166992 8.5 0.5s9.16699 0.5 12.5 0.5c27.333 0 52 -4 74 -12s40.667 -19 56 -33s27.166 -30.833 35.499 -50.5
s12.5 -41.167 12.5 -64.5c0 -28 -5.83301 -52.667 -17.5 -74s-28.334 -39 -50.001 -53s-47.667 -24.5 -78 -31.5s-64.5 -10.5 -102.5 -10.5c-27.333 0 -55.5 2.16699 -84.5 6.5s-62.5 13.166 -100.5 26.499l19 71c28 -10.667 54.333 -18.334 79 -23.001s47.667 -7 69 -7
c44 0 77.667 7.66699 101 23s35 39 35 71c0 28 -10.833 48.333 -32.5 61s-52.834 19.667 -93.501 21h-9.5c-3 0 -6.16699 -0.333008 -9.5 -1l14 169h68z" />
    <glyph glyph-name="Egrave" unicode="&#xc8;" horiz-adv-x="1219" 
d="M1125 1288v-325.998h-113v48c0 41.333 -1.5 73.166 -4.5 95.499s-7.5 38.666 -13.5 48.999s-13.5 16.333 -22.5 18s-19.5 2.5 -31.5 2.5h-531v-462h345c6.66699 0 12.334 0.5 17.001 1.5s8.66699 4.66699 12 11s6.16602 16.833 8.49902 31.5s4.5 36 6.5 64h80v-322h-80
c-2 27.333 -4.33301 48.5 -7 63.5s-6 26 -10 33s-8.66699 11.167 -14 12.5s-11.666 2 -18.999 2h-339v-498h540c15.333 0 27.5 3.16699 36.5 9.5s15.667 18.166 20 35.499s7.16602 41.333 8.49902 72s2 70.334 2 119.001h112v-348h-1081v99h115c16 0 28.333 2.33301 37 7
s15 11 19 19s6.33301 16.833 7 26.5s1 19.5 1 29.5v915c0 16 -0.166992 29.833 -0.5 41.5s-2.33301 21.5 -6 29.5s-10 14 -19 18s-21.833 6 -38.5 6h-107v97h1070zM807 1424l-83 -0.000976562c-15.333 13.333 -33.333 28.166 -54 44.499l-65 51l-68 53.5
c-22.667 18 -43 35.833 -61 53.5s-32.833 34.334 -44.5 50.001s-18.167 29.834 -19.5 42.501c0 10.667 7.33301 19.667 22 27s32 11 52 11c18 0 35.833 -3 53.5 -9s30.167 -13.667 37.5 -23z" />
    <glyph glyph-name="Eacute" unicode="&#xc9;" horiz-adv-x="1219" 
d="M604 1666c8 10.667 17.167 20.998 27.5 30.998s21.333 18.833 33 26.5s23.667 13.834 36 18.501s24.5 7 36.5 7c17.333 0 32 -3.16699 44 -9.5s18 -14.833 18 -25.5c0 -9.33301 -5 -18.666 -15 -27.999l-283 -262h-84zM1125 1288v-325.998h-113v48
c0 41.333 -1.5 73.166 -4.5 95.499s-7.5 38.666 -13.5 48.999s-13.5 16.333 -22.5 18s-19.5 2.5 -31.5 2.5h-531v-462h345c6.66699 0 12.334 0.5 17.001 1.5s8.66699 4.66699 12 11s6.16602 16.833 8.49902 31.5s4.5 36 6.5 64h80v-322h-80c-2 27.333 -4.33301 48.5 -7 63.5
s-6 26 -10 33s-8.66699 11.167 -14 12.5s-11.666 2 -18.999 2h-339v-498h540c15.333 0 27.5 3.16699 36.5 9.5s15.667 18.166 20 35.499s7.16602 41.333 8.49902 72s2 70.334 2 119.001h112v-348h-1081v99h115c16 0 28.333 2.33301 37 7s15 11 19 19s6.33301 16.833 7 26.5
s1 19.5 1 29.5v915c0 16 -0.166992 29.833 -0.5 41.5s-2.33301 21.5 -6 29.5s-10 14 -19 18s-21.833 6 -38.5 6h-107v97h1070z" />
    <glyph glyph-name="Ecircumflex" unicode="&#xca;" horiz-adv-x="1219" 
d="M673 1745l239 -317h-86l-220 195l-216 -195h-83l230 317h136zM1125 1288v-325.998h-113v48c0 41.333 -1.5 73.166 -4.5 95.499s-7.5 38.666 -13.5 48.999s-13.5 16.333 -22.5 18s-19.5 2.5 -31.5 2.5h-531v-462h345c6.66699 0 12.334 0.5 17.001 1.5
s8.66699 4.66699 12 11s6.16602 16.833 8.49902 31.5s4.5 36 6.5 64h80v-322h-80c-2 27.333 -4.33301 48.5 -7 63.5s-6 26 -10 33s-8.66699 11.167 -14 12.5s-11.666 2 -18.999 2h-339v-498h540c15.333 0 27.5 3.16699 36.5 9.5s15.667 18.166 20 35.499
s7.16602 41.333 8.49902 72s2 70.334 2 119.001h112v-348h-1081v99h115c16 0 28.333 2.33301 37 7s15 11 19 19s6.33301 16.833 7 26.5s1 19.5 1 29.5v915c0 16 -0.166992 29.833 -0.5 41.5s-2.33301 21.5 -6 29.5s-10 14 -19 18s-21.833 6 -38.5 6h-107v97h1070z" />
    <glyph glyph-name="Edieresis" unicode="&#xcb;" horiz-adv-x="1219" 
d="M796 1669c28 0 50.334 -8.00098 67.001 -24.001s25 -37.667 25 -65c0 -26.667 -8.33301 -48.167 -25 -64.5s-39.334 -24.5 -68.001 -24.5c-28 0 -50.167 8.33301 -66.5 25s-24.5 38.334 -24.5 65.001s8.33301 48 25 64s39 24 67 24zM423.001 1669
c28 0 50.167 -7.83398 66.5 -23.501s24.5 -37.5 24.5 -65.5c0 -26.667 -8.16699 -48.167 -24.5 -64.5s-38.833 -24.5 -67.5 -24.5c-28 0 -50.167 8.33301 -66.5 25s-24.5 38.334 -24.5 65.001s8.33301 48 25 64s39 24 67 24zM1125 1288v-325.998h-113v48
c0 41.333 -1.5 73.166 -4.5 95.499s-7.5 38.666 -13.5 48.999s-13.5 16.333 -22.5 18s-19.5 2.5 -31.5 2.5h-531v-462h345c6.66699 0 12.334 0.5 17.001 1.5s8.66699 4.66699 12 11s6.16602 16.833 8.49902 31.5s4.5 36 6.5 64h80v-322h-80c-2 27.333 -4.33301 48.5 -7 63.5
s-6 26 -10 33s-8.66699 11.167 -14 12.5s-11.666 2 -18.999 2h-339v-498h540c15.333 0 27.5 3.16699 36.5 9.5s15.667 18.166 20 35.499s7.16602 41.333 8.49902 72s2 70.334 2 119.001h112v-348h-1081v99h115c16 0 28.333 2.33301 37 7s15 11 19 19s6.33301 16.833 7 26.5
s1 19.5 1 29.5v915c0 16 -0.166992 29.833 -0.5 41.5s-2.33301 21.5 -6 29.5s-10 14 -19 18s-21.833 6 -38.5 6h-107v97h1070z" />
    <glyph glyph-name="Igrave" unicode="&#xcc;" horiz-adv-x="656" 
d="M68 1290c31.333 -1.33301 58.666 -2.16504 81.999 -2.49805s46.666 -0.5 69.999 -0.5c58.667 0 108.167 0.166992 148.5 0.5s74.333 0.666016 102 0.999023s50.667 0.666016 69 0.999023s35.5 0.5 51.5 0.5v-99h-49c-30 0 -53.333 -1.66699 -70 -5
s-28.834 -8.16602 -36.501 -14.499s-12.167 -13.833 -13.5 -22.5s-2 -18 -2 -28v-959c0 -12.667 0.666992 -23 2 -31s5.66602 -14.333 12.999 -19s19.333 -8 36 -10s40.334 -3 71.001 -3h49v-99c-20.667 0 -40.5 0.166992 -59.5 0.5s-38.667 0.5 -59 0.5
s-42.166 0.166992 -65.499 0.5s-49.666 0.5 -78.999 0.5c-53.333 0 -100.166 -0.333008 -140.499 -1s-80.166 -1 -119.499 -1v99h48c30.667 0 54.167 1.66699 70.5 5s28.333 8.16602 36 14.499s12.167 13.833 13.5 22.5s2 18 2 28v945c0 14.667 -0.833008 27 -2.5 37
s-6.33398 18 -14.001 24s-19.667 10.167 -36 12.5s-39.5 3.5 -69.5 3.5h-48v99zM528 1424l-83 -0.000976562c-15.333 13.333 -33.333 28.166 -54 44.499l-65 51l-68 53.5c-22.667 18 -43 35.833 -61 53.5s-32.833 34.334 -44.5 50.001s-18.167 29.834 -19.5 42.501
c0 10.667 7.33301 19.667 22 27s32 11 52 11c18 0 35.833 -3 53.5 -9s30.167 -13.667 37.5 -23z" />
    <glyph glyph-name="Iacute" unicode="&#xcd;" horiz-adv-x="656" 
d="M68 1290c31.333 -1.33301 58.666 -2.16504 81.999 -2.49805s46.666 -0.5 69.999 -0.5c58.667 0 108.167 0.166992 148.5 0.5s74.333 0.666016 102 0.999023s50.667 0.666016 69 0.999023s35.5 0.5 51.5 0.5v-99h-49c-30 0 -53.333 -1.66699 -70 -5
s-28.834 -8.16602 -36.501 -14.499s-12.167 -13.833 -13.5 -22.5s-2 -18 -2 -28v-959c0 -12.667 0.666992 -23 2 -31s5.66602 -14.333 12.999 -19s19.333 -8 36 -10s40.334 -3 71.001 -3h49v-99c-20.667 0 -40.5 0.166992 -59.5 0.5s-38.667 0.5 -59 0.5
s-42.166 0.166992 -65.499 0.5s-49.666 0.5 -78.999 0.5c-53.333 0 -100.166 -0.333008 -140.499 -1s-80.166 -1 -119.499 -1v99h48c30.667 0 54.167 1.66699 70.5 5s28.333 8.16602 36 14.499s12.167 13.833 13.5 22.5s2 18 2 28v945c0 14.667 -0.833008 27 -2.5 37
s-6.33398 18 -14.001 24s-19.667 10.167 -36 12.5s-39.5 3.5 -69.5 3.5h-48v99zM324 1666c8 10.667 17.167 20.998 27.5 30.998s21.333 18.833 33 26.5s23.667 13.834 36 18.501s24.5 7 36.5 7c17.333 0 32 -3.16699 44 -9.5s18 -14.833 18 -25.5
c0 -9.33301 -5 -18.666 -15 -27.999l-283 -262h-84z" />
    <glyph glyph-name="Icircumflex" unicode="&#xce;" horiz-adv-x="656" 
d="M68 1290c31.333 -1.33301 58.666 -2.16504 81.999 -2.49805s46.666 -0.5 69.999 -0.5c58.667 0 108.167 0.166992 148.5 0.5s74.333 0.666016 102 0.999023s50.667 0.666016 69 0.999023s35.5 0.5 51.5 0.5v-99h-49c-30 0 -53.333 -1.66699 -70 -5
s-28.834 -8.16602 -36.501 -14.499s-12.167 -13.833 -13.5 -22.5s-2 -18 -2 -28v-959c0 -12.667 0.666992 -23 2 -31s5.66602 -14.333 12.999 -19s19.333 -8 36 -10s40.334 -3 71.001 -3h49v-99c-20.667 0 -40.5 0.166992 -59.5 0.5s-38.667 0.5 -59 0.5
s-42.166 0.166992 -65.499 0.5s-49.666 0.5 -78.999 0.5c-53.333 0 -100.166 -0.333008 -140.499 -1s-80.166 -1 -119.499 -1v99h48c30.667 0 54.167 1.66699 70.5 5s28.333 8.16602 36 14.499s12.167 13.833 13.5 22.5s2 18 2 28v945c0 14.667 -0.833008 27 -2.5 37
s-6.33398 18 -14.001 24s-19.667 10.167 -36 12.5s-39.5 3.5 -69.5 3.5h-48v99zM394 1745l239 -317h-86l-220 195l-216 -195h-83l230 317h136z" />
    <glyph glyph-name="Idieresis" unicode="&#xcf;" horiz-adv-x="656" 
d="M68 1290c31.333 -1.33301 58.666 -2.16504 81.999 -2.49805s46.666 -0.5 69.999 -0.5c58.667 0 108.167 0.166992 148.5 0.5s74.333 0.666016 102 0.999023s50.667 0.666016 69 0.999023s35.5 0.5 51.5 0.5v-99h-49c-30 0 -53.333 -1.66699 -70 -5
s-28.834 -8.16602 -36.501 -14.499s-12.167 -13.833 -13.5 -22.5s-2 -18 -2 -28v-959c0 -12.667 0.666992 -23 2 -31s5.66602 -14.333 12.999 -19s19.333 -8 36 -10s40.334 -3 71.001 -3h49v-99c-20.667 0 -40.5 0.166992 -59.5 0.5s-38.667 0.5 -59 0.5
s-42.166 0.166992 -65.499 0.5s-49.666 0.5 -78.999 0.5c-53.333 0 -100.166 -0.333008 -140.499 -1s-80.166 -1 -119.499 -1v99h48c30.667 0 54.167 1.66699 70.5 5s28.333 8.16602 36 14.499s12.167 13.833 13.5 22.5s2 18 2 28v945c0 14.667 -0.833008 27 -2.5 37
s-6.33398 18 -14.001 24s-19.667 10.167 -36 12.5s-39.5 3.5 -69.5 3.5h-48v99zM517 1669c28 0 50.334 -8.00098 67.001 -24.001s25 -37.667 25 -65c0 -26.667 -8.33301 -48.167 -25 -64.5s-39.334 -24.5 -68.001 -24.5c-28 0 -50.167 8.33301 -66.5 25
s-24.5 38.334 -24.5 65.001s8.33301 48 25 64s39 24 67 24zM144.001 1669c28 0 50.167 -7.83398 66.5 -23.501s24.5 -37.5 24.5 -65.5c0 -26.667 -8.16699 -48.167 -24.5 -64.5s-38.833 -24.5 -67.5 -24.5c-28 0 -50.167 8.33301 -66.5 25s-24.5 38.334 -24.5 65.001
s8.33301 48 25 64s39 24 67 24z" />
    <glyph glyph-name="Eth" unicode="&#xd0;" horiz-adv-x="1477" 
d="M566 1290c266.667 0 467.334 -51.834 602.001 -155.501s202 -262.167 202 -475.5c0 -110.667 -15.5 -207.167 -46.5 -289.5s-78.833 -150.833 -143.5 -205.5s-146.834 -95.667 -246.501 -123s-218.5 -41 -356.5 -41h-527v99h65c28 0 49.5 2 64.5 6s26 9.83301 33 17.5
s11 17.334 12 29.001s1.5 25.167 1.5 40.5v916c0 20 -2.33301 35.5 -7 46.5s-13.5 19.333 -26.5 25s-31 9.16699 -54 10.5s-52.5 2 -88.5 2v98h516zM409 110.999l204.998 0.000976562c90 0 169.833 10.333 239.5 31s128.334 53 176.001 97s83.834 100.333 108.501 169
s37 151 37 247c0 89.333 -12.167 167 -36.5 233s-60.166 120.667 -107.499 164s-105.833 75.666 -175.5 96.999s-149.834 32 -240.501 32h-206v-1070zM655.998 731v-146h-606v146h606z" />
    <glyph glyph-name="Ntilde" unicode="&#xd1;" horiz-adv-x="1441" 
d="M44 1290l12 -0.00292969h31h41.5c15 0 29.5 -0.166992 43.5 -0.5s26.667 -0.5 38 -0.5h24h45c16.667 0 33.834 0.166992 51.501 0.5s35.167 0.5 52.5 0.5h47l666 -1103h2v932c0 17.333 -2 30.833 -6 40.5s-10.667 16.834 -20 21.501s-22.166 7.5 -38.499 8.5
s-36.833 1.5 -61.5 1.5h-52v99c52.667 0 97 -0.5 133 -1.5s68.667 -1.5 98 -1.5h19h32.5c12.333 0 26 0.166992 41 0.5s29.833 0.5 44.5 0.5c34.667 0.666992 73 1.33398 115 2.00098v-99h-63c-26 0 -46.167 -1.5 -60.5 -4.5s-24.833 -7.5 -31.5 -13.5
s-10.667 -13.333 -12 -22s-2 -18.667 -2 -30v-21.5c0 -14.333 -0.166992 -34.666 -0.5 -60.999s-0.5 -57.833 -0.5 -94.5v-120v-543c0 -98 0.333008 -195 1 -291h-194l-688 1134h-2v-949c0 -18.667 1.83301 -33.167 5.5 -43.5s10.167 -17.833 19.5 -22.5
s22.166 -7.5 38.499 -8.5s37.5 -1.5 63.5 -1.5h54v-99c-18 0 -35.333 0.166992 -52 0.5s-33.834 0.5 -51.501 0.5s-36.5 0.166992 -56.5 0.5s-42.667 0.5 -68 0.5c-27.333 0 -52.5 -0.166992 -75.5 -0.5s-45 -0.5 -66 -0.5s-41.667 -0.166992 -62 -0.5
s-40.833 -0.5 -61.5 -0.5v99h64c28 0 49.667 1.33301 65 4s26.5 7.33398 33.5 14.001s11 15.167 12 25.5s1.5 23.166 1.5 38.499v928c0 20 -1.33301 35.5 -4 46.5s-7.83398 19.167 -15.501 24.5s-18.667 8.5 -33 9.5s-33.166 1.5 -56.499 1.5h-62v22
c0 8.66699 0.166992 17.667 0.5 27s0.5 18.5 0.5 27.5v22.5zM1037 1690c-12.667 -63.333 -36.165 -112.334 -70.498 -147.001s-76.5 -52 -126.5 -52c-21.333 0 -43.666 3.83301 -66.999 11.5s-46.666 16 -69.999 25s-46 17.333 -68 25s-42.333 11.5 -61 11.5
c-26 0 -47.333 -7.16699 -64 -21.5s-30.334 -37.166 -41.001 -68.499h-66c31.333 134.667 95.333 202 192 202c22 0 44.667 -3.83301 68 -11.5s46.666 -16.167 69.999 -25.5s46.166 -17.833 68.499 -25.5s44.166 -11.5 65.499 -11.5c48.667 0 83.667 29.333 105 88h65z" />
    <glyph glyph-name="Ograve" unicode="&#xd2;" horiz-adv-x="1528" 
d="M765 1315c100.667 0 191.835 -16.1631 273.502 -48.4961s151 -77.833 208 -136.5s101 -129 132 -211s46.5 -173 46.5 -273c0 -99.333 -15.333 -190 -46 -272s-74.334 -152.5 -131.001 -211.5s-125.334 -104.833 -206.001 -137.5s-170.667 -49 -270 -49
c-103.333 0 -196.166 16 -278.499 48s-152.333 77.167 -210 135.5s-101.834 128.666 -132.501 210.999s-46 174.166 -46 275.499c0 100 15.333 191.167 46 273.5s74.5 152.666 131.5 210.999s126.333 103.666 208 135.999s173.167 48.5 274.5 48.5zM764.001 1202
c-72 0 -136.666 -12.998 -193.999 -38.998s-105.833 -63 -145.5 -111s-70.167 -106.333 -91.5 -175s-32 -145.334 -32 -230.001c0 -85.333 10.667 -162.333 32 -231s52 -127 92 -175s88.667 -84.833 146 -110.5s121.666 -38.5 192.999 -38.5c72 0 136.5 12.833 193.5 38.5
s105.5 62.5 145.5 110.5s70.667 106.167 92 174.5s32 145.166 32 230.499c0 86 -10.667 163.333 -32 232s-52 127 -92 175s-88.5 84.833 -145.5 110.5s-121.5 38.5 -193.5 38.5zM961.002 1424.01l-83 -0.000976562c-15.333 13.333 -33.333 28.166 -54 44.499l-65 51
l-68 53.5c-22.667 18 -43 35.833 -61 53.5s-32.833 34.334 -44.5 50.001s-18.167 29.834 -19.5 42.501c0 10.667 7.33301 19.667 22 27s32 11 52 11c18 0 35.833 -3 53.5 -9s30.167 -13.667 37.5 -23z" />
    <glyph glyph-name="Oacute" unicode="&#xd3;" horiz-adv-x="1528" 
d="M758 1666c8 10.667 17.167 20.998 27.5 30.998s21.333 18.833 33 26.5s23.667 13.834 36 18.501s24.5 7 36.5 7c17.333 0 32 -3.16699 44 -9.5s18 -14.833 18 -25.5c0 -9.33301 -5 -18.666 -15 -27.999l-283 -262h-84zM765 1315
c100.667 0 191.835 -16.1631 273.502 -48.4961s151 -77.833 208 -136.5s101 -129 132 -211s46.5 -173 46.5 -273c0 -99.333 -15.333 -190 -46 -272s-74.334 -152.5 -131.001 -211.5s-125.334 -104.833 -206.001 -137.5s-170.667 -49 -270 -49
c-103.333 0 -196.166 16 -278.499 48s-152.333 77.167 -210 135.5s-101.834 128.666 -132.501 210.999s-46 174.166 -46 275.499c0 100 15.333 191.167 46 273.5s74.5 152.666 131.5 210.999s126.333 103.666 208 135.999s173.167 48.5 274.5 48.5zM764.001 1202
c-72 0 -136.666 -12.998 -193.999 -38.998s-105.833 -63 -145.5 -111s-70.167 -106.333 -91.5 -175s-32 -145.334 -32 -230.001c0 -85.333 10.667 -162.333 32 -231s52 -127 92 -175s88.667 -84.833 146 -110.5s121.666 -38.5 192.999 -38.5c72 0 136.5 12.833 193.5 38.5
s105.5 62.5 145.5 110.5s70.667 106.167 92 174.5s32 145.166 32 230.499c0 86 -10.667 163.333 -32 232s-52 127 -92 175s-88.5 84.833 -145.5 110.5s-121.5 38.5 -193.5 38.5z" />
    <glyph glyph-name="Ocircumflex" unicode="&#xd4;" horiz-adv-x="1528" 
d="M828 1745l239 -317h-86l-220 195l-216 -195h-83l230 317h136zM765 1315c100.667 0 191.835 -16.1631 273.502 -48.4961s151 -77.833 208 -136.5s101 -129 132 -211s46.5 -173 46.5 -273c0 -99.333 -15.333 -190 -46 -272s-74.334 -152.5 -131.001 -211.5
s-125.334 -104.833 -206.001 -137.5s-170.667 -49 -270 -49c-103.333 0 -196.166 16 -278.499 48s-152.333 77.167 -210 135.5s-101.834 128.666 -132.501 210.999s-46 174.166 -46 275.499c0 100 15.333 191.167 46 273.5s74.5 152.666 131.5 210.999
s126.333 103.666 208 135.999s173.167 48.5 274.5 48.5zM764.001 1202c-72 0 -136.666 -12.998 -193.999 -38.998s-105.833 -63 -145.5 -111s-70.167 -106.333 -91.5 -175s-32 -145.334 -32 -230.001c0 -85.333 10.667 -162.333 32 -231s52 -127 92 -175
s88.667 -84.833 146 -110.5s121.666 -38.5 192.999 -38.5c72 0 136.5 12.833 193.5 38.5s105.5 62.5 145.5 110.5s70.667 106.167 92 174.5s32 145.166 32 230.499c0 86 -10.667 163.333 -32 232s-52 127 -92 175s-88.5 84.833 -145.5 110.5s-121.5 38.5 -193.5 38.5z" />
    <glyph glyph-name="Otilde" unicode="&#xd5;" horiz-adv-x="1528" 
d="M765 1315c100.667 0 191.835 -16.1631 273.502 -48.4961s151 -77.833 208 -136.5s101 -129 132 -211s46.5 -173 46.5 -273c0 -99.333 -15.333 -190 -46 -272s-74.334 -152.5 -131.001 -211.5s-125.334 -104.833 -206.001 -137.5s-170.667 -49 -270 -49
c-103.333 0 -196.166 16 -278.499 48s-152.333 77.167 -210 135.5s-101.834 128.666 -132.501 210.999s-46 174.166 -46 275.499c0 100 15.333 191.167 46 273.5s74.5 152.666 131.5 210.999s126.333 103.666 208 135.999s173.167 48.5 274.5 48.5zM764.001 1202
c-72 0 -136.666 -12.998 -193.999 -38.998s-105.833 -63 -145.5 -111s-70.167 -106.333 -91.5 -175s-32 -145.334 -32 -230.001c0 -85.333 10.667 -162.333 32 -231s52 -127 92 -175s88.667 -84.833 146 -110.5s121.666 -38.5 192.999 -38.5c72 0 136.5 12.833 193.5 38.5
s105.5 62.5 145.5 110.5s70.667 106.167 92 174.5s32 145.166 32 230.499c0 86 -10.667 163.333 -32 232s-52 127 -92 175s-88.5 84.833 -145.5 110.5s-121.5 38.5 -193.5 38.5zM1081 1690.01c-12.667 -63.333 -36.165 -112.334 -70.498 -147.001s-76.5 -52 -126.5 -52
c-21.333 0 -43.666 3.83301 -66.999 11.5s-46.666 16 -69.999 25s-46 17.333 -68 25s-42.333 11.5 -61 11.5c-26 0 -47.333 -7.16699 -64 -21.5s-30.334 -37.166 -41.001 -68.499h-66c31.333 134.667 95.333 202 192 202c22 0 44.667 -3.83301 68 -11.5
s46.666 -16.167 69.999 -25.5s46.166 -17.833 68.499 -25.5s44.166 -11.5 65.499 -11.5c48.667 0 83.667 29.333 105 88h65z" />
    <glyph glyph-name="Odieresis" unicode="&#xd6;" horiz-adv-x="1528" 
d="M951 1669c28 0 50.334 -8.00098 67.001 -24.001s25 -37.667 25 -65c0 -26.667 -8.33301 -48.167 -25 -64.5s-39.334 -24.5 -68.001 -24.5c-28 0 -50.167 8.33301 -66.5 25s-24.5 38.334 -24.5 65.001s8.33301 48 25 64s39 24 67 24zM578.001 1669
c28 0 50.167 -7.83398 66.5 -23.501s24.5 -37.5 24.5 -65.5c0 -26.667 -8.16699 -48.167 -24.5 -64.5s-38.833 -24.5 -67.5 -24.5c-28 0 -50.167 8.33301 -66.5 25s-24.5 38.334 -24.5 65.001s8.33301 48 25 64s39 24 67 24zM765.001 1315
c100.667 0 191.835 -16.1631 273.502 -48.4961s151 -77.833 208 -136.5s101 -129 132 -211s46.5 -173 46.5 -273c0 -99.333 -15.333 -190 -46 -272s-74.334 -152.5 -131.001 -211.5s-125.334 -104.833 -206.001 -137.5s-170.667 -49 -270 -49
c-103.333 0 -196.166 16 -278.499 48s-152.333 77.167 -210 135.5s-101.834 128.666 -132.501 210.999s-46 174.166 -46 275.499c0 100 15.333 191.167 46 273.5s74.5 152.666 131.5 210.999s126.333 103.666 208 135.999s173.167 48.5 274.5 48.5zM764.002 1202
c-72 0 -136.666 -12.998 -193.999 -38.998s-105.833 -63 -145.5 -111s-70.167 -106.333 -91.5 -175s-32 -145.334 -32 -230.001c0 -85.333 10.667 -162.333 32 -231s52 -127 92 -175s88.667 -84.833 146 -110.5s121.666 -38.5 192.999 -38.5c72 0 136.5 12.833 193.5 38.5
s105.5 62.5 145.5 110.5s70.667 106.167 92 174.5s32 145.166 32 230.499c0 86 -10.667 163.333 -32 232s-52 127 -92 175s-88.5 84.833 -145.5 110.5s-121.5 38.5 -193.5 38.5z" />
    <glyph glyph-name="multiply" unicode="&#xd7;" horiz-adv-x="1537" 
d="M1212 1136l87 -84l-441 -433l441 -429l-87 -85l-441 431l-444 -431l-85 85l442 429l-441 433l84 84l443 -433z" />
    <glyph glyph-name="Oslash" unicode="&#xd8;" horiz-adv-x="1528" 
d="M1375 1318l-143.001 -176.998c128.667 -115.333 193 -280.333 193 -495c0 -94.667 -14.167 -182.834 -42.5 -264.501s-70.333 -152.5 -126 -212.5s-124.667 -107.167 -207 -141.5s-177.166 -51.5 -284.499 -51.5c-43.333 0 -83.166 2.16699 -119.499 6.5
s-70.333 11.166 -102 20.499s-61.834 21 -90.501 35s-56.334 31 -83.001 51l-129 -161l-95 27l151 191c-65.333 64 -113.666 136.5 -144.999 217.5s-47 174.167 -47 279.5c0 95.333 14.333 184 43 266s71 153 127 213s125 107.167 207 141.5s176.333 51.5 283 51.5
c40 0 77.5 -2.16699 112.5 -6.5s68.5 -11.333 100.5 -21s63.167 -22 93.5 -37s60.5 -32.833 90.5 -53.5l118 148zM1072 1091c-22.667 20.667 -45.5 38.165 -68.5 52.498s-46.833 26 -71.5 35s-50.5 15.5 -77.5 19.5s-56.167 6 -87.5 6c-73.333 0 -139 -12.833 -197 -38.5
s-107.333 -62.667 -148 -111s-71.667 -107.166 -93 -176.499s-32 -147.666 -32 -234.999c0 -36.667 2 -71 6 -103s10.333 -62.833 19 -92.5s20 -58 34 -85s31 -53.833 51 -80.5zM461.999 201c78 -74 178.333 -111.001 301 -111.001c82 0 152.5 15.167 211.5 45.5
s107.5 71 145.5 122s66.167 110.333 84.5 178s27.5 139.167 27.5 214.5c0 74.667 -8.83301 141.834 -26.5 201.501s-43.5 112.5 -77.5 158.5z" />
    <glyph glyph-name="Ugrave" unicode="&#xd9;" horiz-adv-x="1351" 
d="M24 1290c46 -1.33301 95.167 -1.99805 147.5 -1.99805h151.5h106c34.667 0 71.334 0.666992 110.001 2v-99h-47c-30 0 -53.333 -1.66699 -70 -5s-28.834 -7.83301 -36.501 -13.5s-12.167 -12.334 -13.5 -20.001s-2 -15.834 -2 -24.501v-633
c0 -69.333 5.16699 -129.333 15.5 -180s28 -92.334 53 -125.001s58.5 -56.834 100.5 -72.501s94.667 -23.5 158 -23.5c68 0 123 8.66699 165 26s74.5 42.833 97.5 76.5s38.5 74.834 46.5 123.501s12 104.334 12 167.001v636c0 12.667 -0.666992 23.334 -2 32.001
s-6 15.667 -14 21s-20.667 9.16602 -38 11.499s-42.333 3.5 -75 3.5h-48v99c23.333 -1.33301 49.166 -2 77.499 -2h85.5c20 0 38.667 0.166992 56 0.5s37.5 0.5 60.5 0.5s50.667 0.166992 83 0.5s73.5 0.5 123.5 0.5v-99h-51c-28.667 0 -50.5 -1.83301 -65.5 -5.5
s-26 -8.5 -33 -14.5s-11 -12.667 -12 -20s-1.5 -15 -1.5 -23v-635c0 -87.333 -8.5 -163.5 -25.5 -228.5s-44.5 -118.833 -82.5 -161.5s-87.5 -74.5 -148.5 -95.5s-135.167 -31.5 -222.5 -31.5c-95.333 0 -174.833 10.667 -238.5 32s-114.5 53.5 -152.5 96.5
s-65 96.5 -81 160.5s-24 139 -24 225v644c0 10.667 -0.666992 19.5 -2 26.5s-5.66602 12.833 -12.999 17.5s-18.833 8 -34.5 10s-37.5 3 -65.5 3h-50v99zM872 1424l-83 -0.000976562c-15.333 13.333 -33.333 28.166 -54 44.499l-65 51l-68 53.5
c-22.667 18 -43 35.833 -61 53.5s-32.833 34.334 -44.5 50.001s-18.167 29.834 -19.5 42.501c0 10.667 7.33301 19.667 22 27s32 11 52 11c18 0 35.833 -3 53.5 -9s30.167 -13.667 37.5 -23z" />
    <glyph glyph-name="Uacute" unicode="&#xda;" horiz-adv-x="1351" 
d="M669 1666c8 10.667 17.167 20.998 27.5 30.998s21.333 18.833 33 26.5s23.667 13.834 36 18.501s24.5 7 36.5 7c17.333 0 32 -3.16699 44 -9.5s18 -14.833 18 -25.5c0 -9.33301 -5 -18.666 -15 -27.999l-283 -262h-84zM24 1290
c46 -1.33301 95.167 -1.99805 147.5 -1.99805h151.5h106c34.667 0 71.334 0.666992 110.001 2v-99h-47c-30 0 -53.333 -1.66699 -70 -5s-28.834 -7.83301 -36.501 -13.5s-12.167 -12.334 -13.5 -20.001s-2 -15.834 -2 -24.501v-633c0 -69.333 5.16699 -129.333 15.5 -180
s28 -92.334 53 -125.001s58.5 -56.834 100.5 -72.501s94.667 -23.5 158 -23.5c68 0 123 8.66699 165 26s74.5 42.833 97.5 76.5s38.5 74.834 46.5 123.501s12 104.334 12 167.001v636c0 12.667 -0.666992 23.334 -2 32.001s-6 15.667 -14 21s-20.667 9.16602 -38 11.499
s-42.333 3.5 -75 3.5h-48v99c23.333 -1.33301 49.166 -2 77.499 -2h85.5c20 0 38.667 0.166992 56 0.5s37.5 0.5 60.5 0.5s50.667 0.166992 83 0.5s73.5 0.5 123.5 0.5v-99h-51c-28.667 0 -50.5 -1.83301 -65.5 -5.5s-26 -8.5 -33 -14.5s-11 -12.667 -12 -20
s-1.5 -15 -1.5 -23v-635c0 -87.333 -8.5 -163.5 -25.5 -228.5s-44.5 -118.833 -82.5 -161.5s-87.5 -74.5 -148.5 -95.5s-135.167 -31.5 -222.5 -31.5c-95.333 0 -174.833 10.667 -238.5 32s-114.5 53.5 -152.5 96.5s-65 96.5 -81 160.5s-24 139 -24 225v644
c0 10.667 -0.666992 19.5 -2 26.5s-5.66602 12.833 -12.999 17.5s-18.833 8 -34.5 10s-37.5 3 -65.5 3h-50v99z" />
    <glyph glyph-name="Ucircumflex" unicode="&#xdb;" horiz-adv-x="1351" 
d="M739 1745l239 -317h-86l-220 195l-216 -195h-83l230 317h136zM24 1290c46 -1.33301 95.167 -1.99805 147.5 -1.99805h151.5h106c34.667 0 71.334 0.666992 110.001 2v-99h-47c-30 0 -53.333 -1.66699 -70 -5s-28.834 -7.83301 -36.501 -13.5
s-12.167 -12.334 -13.5 -20.001s-2 -15.834 -2 -24.501v-633c0 -69.333 5.16699 -129.333 15.5 -180s28 -92.334 53 -125.001s58.5 -56.834 100.5 -72.501s94.667 -23.5 158 -23.5c68 0 123 8.66699 165 26s74.5 42.833 97.5 76.5s38.5 74.834 46.5 123.501
s12 104.334 12 167.001v636c0 12.667 -0.666992 23.334 -2 32.001s-6 15.667 -14 21s-20.667 9.16602 -38 11.499s-42.333 3.5 -75 3.5h-48v99c23.333 -1.33301 49.166 -2 77.499 -2h85.5c20 0 38.667 0.166992 56 0.5s37.5 0.5 60.5 0.5s50.667 0.166992 83 0.5
s73.5 0.5 123.5 0.5v-99h-51c-28.667 0 -50.5 -1.83301 -65.5 -5.5s-26 -8.5 -33 -14.5s-11 -12.667 -12 -20s-1.5 -15 -1.5 -23v-635c0 -87.333 -8.5 -163.5 -25.5 -228.5s-44.5 -118.833 -82.5 -161.5s-87.5 -74.5 -148.5 -95.5s-135.167 -31.5 -222.5 -31.5
c-95.333 0 -174.833 10.667 -238.5 32s-114.5 53.5 -152.5 96.5s-65 96.5 -81 160.5s-24 139 -24 225v644c0 10.667 -0.666992 19.5 -2 26.5s-5.66602 12.833 -12.999 17.5s-18.833 8 -34.5 10s-37.5 3 -65.5 3h-50v99z" />
    <glyph glyph-name="Udieresis" unicode="&#xdc;" horiz-adv-x="1351" 
d="M862 1669c28 0 50.334 -8.00098 67.001 -24.001s25 -37.667 25 -65c0 -26.667 -8.33301 -48.167 -25 -64.5s-39.334 -24.5 -68.001 -24.5c-28 0 -50.167 8.33301 -66.5 25s-24.5 38.334 -24.5 65.001s8.33301 48 25 64s39 24 67 24zM489.001 1669
c28 0 50.167 -7.83398 66.5 -23.501s24.5 -37.5 24.5 -65.5c0 -26.667 -8.16699 -48.167 -24.5 -64.5s-38.833 -24.5 -67.5 -24.5c-28 0 -50.167 8.33301 -66.5 25s-24.5 38.334 -24.5 65.001s8.33301 48 25 64s39 24 67 24zM24.001 1290
c46 -1.33301 95.167 -1.99805 147.5 -1.99805h151.5h106c34.667 0 71.334 0.666992 110.001 2v-99h-47c-30 0 -53.333 -1.66699 -70 -5s-28.834 -7.83301 -36.501 -13.5s-12.167 -12.334 -13.5 -20.001s-2 -15.834 -2 -24.501v-633c0 -69.333 5.16699 -129.333 15.5 -180
s28 -92.334 53 -125.001s58.5 -56.834 100.5 -72.501s94.667 -23.5 158 -23.5c68 0 123 8.66699 165 26s74.5 42.833 97.5 76.5s38.5 74.834 46.5 123.501s12 104.334 12 167.001v636c0 12.667 -0.666992 23.334 -2 32.001s-6 15.667 -14 21s-20.667 9.16602 -38 11.499
s-42.333 3.5 -75 3.5h-48v99c23.333 -1.33301 49.166 -2 77.499 -2h85.5c20 0 38.667 0.166992 56 0.5s37.5 0.5 60.5 0.5s50.667 0.166992 83 0.5s73.5 0.5 123.5 0.5v-99h-51c-28.667 0 -50.5 -1.83301 -65.5 -5.5s-26 -8.5 -33 -14.5s-11 -12.667 -12 -20
s-1.5 -15 -1.5 -23v-635c0 -87.333 -8.5 -163.5 -25.5 -228.5s-44.5 -118.833 -82.5 -161.5s-87.5 -74.5 -148.5 -95.5s-135.167 -31.5 -222.5 -31.5c-95.333 0 -174.833 10.667 -238.5 32s-114.5 53.5 -152.5 96.5s-65 96.5 -81 160.5s-24 139 -24 225v644
c0 10.667 -0.666992 19.5 -2 26.5s-5.66602 12.833 -12.999 17.5s-18.833 8 -34.5 10s-37.5 3 -65.5 3h-50v99z" />
    <glyph glyph-name="Yacute" unicode="&#xdd;" horiz-adv-x="1259" 
d="M-7 1290c19.333 -1.33301 41.498 -2.16797 66.498 -2.50098s47.833 -0.5 68.5 -0.5c28 0 55.333 0.166992 82 0.5s54.834 0.666016 84.501 0.999023s61.667 0.666016 96 0.999023s73.5 0.5 117.5 0.5v-99h-38c-44 0 -75.667 -1.16699 -95 -3.5s-29 -10.166 -29 -23.499
c1.33301 -9.33301 6 -21.5 14 -36.5s18.667 -33.167 32 -54.5c0.666992 -1.33301 7.5 -12.166 20.5 -32.499l47.5 -75.5l60.5 -96.5l60.5 -96.5l47 -75.5c12.667 -20.333 19.334 -31.166 20.001 -32.499l255 403c15.333 24.667 27.333 44.667 36 60s13 27.666 13 36.999
c0 13.333 -12.167 21.166 -36.5 23.499s-64.5 3.5 -120.5 3.5v99c38.667 -0.666992 75.334 -1 110.001 -1c14.667 0 29.667 -0.166992 45 -0.5s29.833 -0.5 43.5 -0.5h37h27.5h97.5c33 0 69.5 0.666992 109.5 2v-99c-30 0 -53.667 -0.5 -71 -1.5s-31.5 -4 -42.5 -9
s-20.833 -12.833 -29.5 -23.5s-19.334 -25.334 -32.001 -44.001l-58.5 -87.5l-76 -115l-81.5 -124l-74.5 -114l-55.5 -86c-14.667 -23 -23 -35.833 -25 -38.5v-385c0 -13.333 1.16699 -24.166 3.5 -32.499s7.83301 -14.833 16.5 -19.5s21.5 -7.83398 38.5 -9.50098
s40.5 -2.5 70.5 -2.5h54v-99h-125c-42 0 -91.667 0.666992 -149 2c-51.333 0 -99.5 -0.333008 -144.5 -1s-85.833 -1 -122.5 -1v99h53c32 0 56.667 1.5 74 4.5s29.833 7.33301 37.5 13s12.167 12.167 13.5 19.5s2 15.666 2 24.999v389l-17 26.5l-39 60l-53.5 82l-60 93
l-60 93l-53.5 82l-39 60l-17 26.5c-18 28.667 -32.833 50.834 -44.5 66.501s-24.167 27.334 -37.5 35.001s-29.5 12.334 -48.5 14.001s-44.833 2.5 -77.5 2.5c0 16.667 -0.166992 33.334 -0.5 50.001s-0.5 33 -0.5 49zM624.998 1666c8 10.667 17.167 20.998 27.5 30.998
s21.333 18.833 33 26.5s23.667 13.834 36 18.501s24.5 7 36.5 7c17.333 0 32 -3.16699 44 -9.5s18 -14.833 18 -25.5c0 -9.33301 -5 -18.666 -15 -27.999l-283 -262h-84z" />
    <glyph glyph-name="Thorn" unicode="&#xde;" horiz-adv-x="1174" 
d="M57 1290c20.667 0 43.4971 -0.168945 68.4971 -0.501953s50.5 -0.5 76.5 -0.5s52.333 -0.166992 79 -0.5s52 -0.5 76 -0.5h117.5c39.667 0 79.167 0.666992 118.5 2v-85h-49c-20 0 -38 -0.333008 -54 -1s-29.5 -2.66699 -40.5 -6s-19.333 -8.16602 -25 -14.499
s-8.5 -15.5 -8.5 -27.5v-124h233c80.667 0 150.5 -9.16699 209.5 -27.5s107.833 -43.833 146.5 -76.5s67.334 -71.667 86.001 -117s28 -94.666 28 -147.999c0 -58.667 -9 -111 -27 -157s-47 -84.833 -87 -116.5s-91.667 -55.834 -155 -72.501s-140.333 -25 -231 -25h-203
v-144c0 -13.333 0.666992 -24 2 -32s6 -14.333 14 -19s20.667 -7.66699 38 -9s42 -2 74 -2h49v-86h-53h-54.5c-19 0 -39.167 0.166992 -60.5 0.5s-45 0.833008 -71 1.5c-31.333 0 -60 -0.166992 -86 -0.5s-50.667 -0.5 -74 -0.5s-46.166 -0.166992 -68.499 -0.5
s-45.166 -0.5 -68.499 -0.5v86h49c32 0 56.667 2.16699 74 6.5s30 10 38 17s12.667 14.833 14 23.5s2 17 2 25v1008c0 14.667 -10 24.834 -30 30.501s-51.333 8.5 -94 8.5h-53v85zM415.997 395.998h190.001c60 0 111 6 153 18s76.333 29.167 103 51.5
s46.167 49.833 58.5 82.5s18.5 69.667 18.5 111c0 88 -26.333 154.167 -79 198.5s-135.334 66.5 -248.001 66.5h-196v-528z" />
    <glyph glyph-name="germandbls" unicode="&#xdf;" horiz-adv-x="1217" 
d="M827 741c100.667 -13.333 177.5 -51.3311 230.5 -113.998s79.5 -146.334 79.5 -251.001c0 -61.333 -8.5 -116.333 -25.5 -165s-41.667 -90.334 -74 -125.001s-72 -61.167 -119 -79.5s-100.167 -27.5 -159.5 -27.5c-30 0 -63.667 3.33301 -101 10v91
c8.66699 -2 18.5 -3.33301 29.5 -4s22.167 -1 33.5 -1c30.667 0.666992 60.5 6.66699 89.5 18s54.833 28.833 77.5 52.5s41 53.834 55 90.501s21 80.667 21 132c0 49.333 -5.83301 93.666 -17.5 132.999s-31 72.833 -58 100.5s-62.5 49 -106.5 64s-98.667 22.833 -164 23.5
v90c44 2 81 8.66699 111 20s54.333 26.5 73 45.5s32 42 40 69s12 57.5 12 91.5c0 32.667 -5.66699 62.167 -17 88.5s-27.5 48.833 -48.5 67.5s-46.5 33 -76.5 43s-63.667 15 -101 15c-36 0 -69.167 -4.33301 -99.5 -13s-56.666 -23.5 -78.999 -44.5s-39.833 -49 -52.5 -84
s-19 -79.167 -19 -132.5v-787c0 -14.667 2.16699 -26.167 6.5 -34.5s12 -14.5 23 -18.5s25.833 -6.66699 44.5 -8s42.334 -2 71.001 -2v-95c-17.333 0 -33.666 0.166992 -48.999 0.5s-31.333 0.5 -48 0.5s-34.334 0.166992 -53.001 0.5s-39.667 0.5 -63 0.5
c-26 0 -50 -0.166992 -72 -0.5s-43 -0.5 -63 -0.5s-39.5 -0.166992 -58.5 -0.5s-38.167 -0.5 -57.5 -0.5v95c38 0 67.167 0.833008 87.5 2.5s35.166 4.83398 44.499 9.50098s14.833 11.167 16.5 19.5s2.5 19.166 2.5 32.499v698c0 74 6.33301 139.5 19 196.5
s35 104.833 67 143.5s75 68 129 88s122.333 30 205 30c64 0 121.167 -7 171.5 -21s93 -34.5 128 -61.5s61.667 -60 80 -99s27.5 -83.833 27.5 -134.5c0 -65.333 -16.833 -119.333 -50.5 -162s-82.834 -74.667 -147.501 -96h5z" />
    <glyph glyph-name="agrave" unicode="&#xe0;" horiz-adv-x="1060" 
d="M896 224c0 -34.667 1.16797 -61.1689 3.50098 -79.502s6.83301 -31.666 13.5 -39.999s16.167 -13 28.5 -14s28.5 -1.5 48.5 -1.5h45v-89c-52.667 0 -104.834 -0.333008 -156.501 -1s-99.834 -1.66699 -144.501 -3v137c-40 -51.333 -87.5 -89.833 -142.5 -115.5
s-119.167 -38.5 -192.5 -38.5c-48 0 -91.333 6.83301 -130 20.5s-71.667 32.5 -99 56.5s-48.5 52.667 -63.5 86s-22.5 70 -22.5 110c0 42.667 8.66699 81.5 26 116.5s42.666 64.833 75.999 89.5s73.833 43.834 121.5 57.501s102.167 20.5 163.5 20.5
c42 0 84.333 -3.16699 127 -9.5s86 -15.166 130 -26.499v144c0 60.667 -20.167 107 -60.5 139s-102.166 48 -185.499 48c-70 0 -124.833 -13.5 -164.5 -40.5s-66.167 -68.833 -79.5 -125.5l-92 11l13 176c42.667 19.333 92.5 35.166 149.5 47.499s121.167 18.5 192.5 18.5
c70.667 0 131 -6.33301 181 -19s90.833 -32 122.5 -58s54.834 -59.167 69.501 -99.5s22 -87.833 22 -142.5v-375zM509.001 451.998c-40 0 -76.002 -4.49805 -108.002 -13.498s-59.167 -21.833 -81.5 -38.5s-39.5 -37 -51.5 -61s-18 -51.333 -18 -82
c0 -27.333 4.83301 -51.5 14.5 -72.5s23.334 -38.833 41.001 -53.5s38.834 -26.334 63.501 -35.001s51.667 -12.667 81 -12c32 -0.666992 64.5 4.16602 97.5 14.499s62.833 25 89.5 44s48.5 43 65.5 72s25.5 63.833 25.5 104.5v98c-40 11.333 -78 20 -114 26s-71 9 -105 9z
M726.999 1029l-83 -0.000976562c-15.333 13.333 -33.333 28.166 -54 44.499l-65 51l-68 53.5c-22.667 18 -43 35.833 -61 53.5s-32.833 34.334 -44.5 50.001s-18.167 29.834 -19.5 42.501c0 10.667 7.33301 19.667 22 27s32 11 52 11c18 0 35.833 -3 53.5 -9
s30.167 -13.667 37.5 -23z" />
    <glyph glyph-name="aacute" unicode="&#xe1;" horiz-adv-x="1060" 
d="M896 224c0 -34.667 1.16797 -61.1689 3.50098 -79.502s6.83301 -31.666 13.5 -39.999s16.167 -13 28.5 -14s28.5 -1.5 48.5 -1.5h45v-89c-52.667 0 -104.834 -0.333008 -156.501 -1s-99.834 -1.66699 -144.501 -3v137c-40 -51.333 -87.5 -89.833 -142.5 -115.5
s-119.167 -38.5 -192.5 -38.5c-48 0 -91.333 6.83301 -130 20.5s-71.667 32.5 -99 56.5s-48.5 52.667 -63.5 86s-22.5 70 -22.5 110c0 42.667 8.66699 81.5 26 116.5s42.666 64.833 75.999 89.5s73.833 43.834 121.5 57.501s102.167 20.5 163.5 20.5
c42 0 84.333 -3.16699 127 -9.5s86 -15.166 130 -26.499v144c0 60.667 -20.167 107 -60.5 139s-102.166 48 -185.499 48c-70 0 -124.833 -13.5 -164.5 -40.5s-66.167 -68.833 -79.5 -125.5l-92 11l13 176c42.667 19.333 92.5 35.166 149.5 47.499s121.167 18.5 192.5 18.5
c70.667 0 131 -6.33301 181 -19s90.833 -32 122.5 -58s54.834 -59.167 69.501 -99.5s22 -87.833 22 -142.5v-375zM509.001 451.998c-40 0 -76.002 -4.49805 -108.002 -13.498s-59.167 -21.833 -81.5 -38.5s-39.5 -37 -51.5 -61s-18 -51.333 -18 -82
c0 -27.333 4.83301 -51.5 14.5 -72.5s23.334 -38.833 41.001 -53.5s38.834 -26.334 63.501 -35.001s51.667 -12.667 81 -12c32 -0.666992 64.5 4.16602 97.5 14.499s62.833 25 89.5 44s48.5 43 65.5 72s25.5 63.833 25.5 104.5v98c-40 11.333 -78 20 -114 26s-71 9 -105 9z
M523.999 1271c8 10.667 17.167 20.998 27.5 30.998s21.333 18.833 33 26.5s23.667 13.834 36 18.501s24.5 7 36.5 7c17.333 0 32 -3.16699 44 -9.5s18 -14.833 18 -25.5c0 -9.33301 -5 -18.666 -15 -27.999l-283 -262h-84z" />
    <glyph glyph-name="acircumflex" unicode="&#xe2;" horiz-adv-x="1060" 
d="M896 224c0 -34.667 1.16797 -61.1689 3.50098 -79.502s6.83301 -31.666 13.5 -39.999s16.167 -13 28.5 -14s28.5 -1.5 48.5 -1.5h45v-89c-52.667 0 -104.834 -0.333008 -156.501 -1s-99.834 -1.66699 -144.501 -3v137c-40 -51.333 -87.5 -89.833 -142.5 -115.5
s-119.167 -38.5 -192.5 -38.5c-48 0 -91.333 6.83301 -130 20.5s-71.667 32.5 -99 56.5s-48.5 52.667 -63.5 86s-22.5 70 -22.5 110c0 42.667 8.66699 81.5 26 116.5s42.666 64.833 75.999 89.5s73.833 43.834 121.5 57.501s102.167 20.5 163.5 20.5
c42 0 84.333 -3.16699 127 -9.5s86 -15.166 130 -26.499v144c0 60.667 -20.167 107 -60.5 139s-102.166 48 -185.499 48c-70 0 -124.833 -13.5 -164.5 -40.5s-66.167 -68.833 -79.5 -125.5l-92 11l13 176c42.667 19.333 92.5 35.166 149.5 47.499s121.167 18.5 192.5 18.5
c70.667 0 131 -6.33301 181 -19s90.833 -32 122.5 -58s54.834 -59.167 69.501 -99.5s22 -87.833 22 -142.5v-375zM509.001 451.998c-40 0 -76.002 -4.49805 -108.002 -13.498s-59.167 -21.833 -81.5 -38.5s-39.5 -37 -51.5 -61s-18 -51.333 -18 -82
c0 -27.333 4.83301 -51.5 14.5 -72.5s23.334 -38.833 41.001 -53.5s38.834 -26.334 63.501 -35.001s51.667 -12.667 81 -12c32 -0.666992 64.5 4.16602 97.5 14.499s62.833 25 89.5 44s48.5 43 65.5 72s25.5 63.833 25.5 104.5v98c-40 11.333 -78 20 -114 26s-71 9 -105 9z
M592.999 1350l239 -317h-86l-220 195l-216 -195h-83l230 317h136z" />
    <glyph glyph-name="atilde" unicode="&#xe3;" horiz-adv-x="1060" 
d="M896 224c0 -34.667 1.16797 -61.1689 3.50098 -79.502s6.83301 -31.666 13.5 -39.999s16.167 -13 28.5 -14s28.5 -1.5 48.5 -1.5h45v-89c-52.667 0 -104.834 -0.333008 -156.501 -1s-99.834 -1.66699 -144.501 -3v137c-40 -51.333 -87.5 -89.833 -142.5 -115.5
s-119.167 -38.5 -192.5 -38.5c-48 0 -91.333 6.83301 -130 20.5s-71.667 32.5 -99 56.5s-48.5 52.667 -63.5 86s-22.5 70 -22.5 110c0 42.667 8.66699 81.5 26 116.5s42.666 64.833 75.999 89.5s73.833 43.834 121.5 57.501s102.167 20.5 163.5 20.5
c42 0 84.333 -3.16699 127 -9.5s86 -15.166 130 -26.499v144c0 60.667 -20.167 107 -60.5 139s-102.166 48 -185.499 48c-70 0 -124.833 -13.5 -164.5 -40.5s-66.167 -68.833 -79.5 -125.5l-92 11l13 176c42.667 19.333 92.5 35.166 149.5 47.499s121.167 18.5 192.5 18.5
c70.667 0 131 -6.33301 181 -19s90.833 -32 122.5 -58s54.834 -59.167 69.501 -99.5s22 -87.833 22 -142.5v-375zM509.001 451.998c-40 0 -76.002 -4.49805 -108.002 -13.498s-59.167 -21.833 -81.5 -38.5s-39.5 -37 -51.5 -61s-18 -51.333 -18 -82
c0 -27.333 4.83301 -51.5 14.5 -72.5s23.334 -38.833 41.001 -53.5s38.834 -26.334 63.501 -35.001s51.667 -12.667 81 -12c32 -0.666992 64.5 4.16602 97.5 14.499s62.833 25 89.5 44s48.5 43 65.5 72s25.5 63.833 25.5 104.5v98c-40 11.333 -78 20 -114 26s-71 9 -105 9z
M846.999 1295c-12.667 -63.333 -36.165 -112.334 -70.498 -147.001s-76.5 -52 -126.5 -52c-21.333 0 -43.666 3.83301 -66.999 11.5s-46.666 16 -69.999 25s-46 17.333 -68 25s-42.333 11.5 -61 11.5c-26 0 -47.333 -7.16699 -64 -21.5s-30.334 -37.166 -41.001 -68.499h-66
c31.333 134.667 95.333 202 192 202c22 0 44.667 -3.83301 68 -11.5s46.666 -16.167 69.999 -25.5s46.166 -17.833 68.499 -25.5s44.166 -11.5 65.499 -11.5c48.667 0 83.667 29.333 105 88h65z" />
    <glyph glyph-name="adieresis" unicode="&#xe4;" horiz-adv-x="1060" 
d="M896 224c0 -34.667 1.16797 -61.1689 3.50098 -79.502s6.83301 -31.666 13.5 -39.999s16.167 -13 28.5 -14s28.5 -1.5 48.5 -1.5h45v-89c-52.667 0 -104.834 -0.333008 -156.501 -1s-99.834 -1.66699 -144.501 -3v137c-40 -51.333 -87.5 -89.833 -142.5 -115.5
s-119.167 -38.5 -192.5 -38.5c-48 0 -91.333 6.83301 -130 20.5s-71.667 32.5 -99 56.5s-48.5 52.667 -63.5 86s-22.5 70 -22.5 110c0 42.667 8.66699 81.5 26 116.5s42.666 64.833 75.999 89.5s73.833 43.834 121.5 57.501s102.167 20.5 163.5 20.5
c42 0 84.333 -3.16699 127 -9.5s86 -15.166 130 -26.499v144c0 60.667 -20.167 107 -60.5 139s-102.166 48 -185.499 48c-70 0 -124.833 -13.5 -164.5 -40.5s-66.167 -68.833 -79.5 -125.5l-92 11l13 176c42.667 19.333 92.5 35.166 149.5 47.499s121.167 18.5 192.5 18.5
c70.667 0 131 -6.33301 181 -19s90.833 -32 122.5 -58s54.834 -59.167 69.501 -99.5s22 -87.833 22 -142.5v-375zM509.001 451.998c-40 0 -76.002 -4.49805 -108.002 -13.498s-59.167 -21.833 -81.5 -38.5s-39.5 -37 -51.5 -61s-18 -51.333 -18 -82
c0 -27.333 4.83301 -51.5 14.5 -72.5s23.334 -38.833 41.001 -53.5s38.834 -26.334 63.501 -35.001s51.667 -12.667 81 -12c32 -0.666992 64.5 4.16602 97.5 14.499s62.833 25 89.5 44s48.5 43 65.5 72s25.5 63.833 25.5 104.5v98c-40 11.333 -78 20 -114 26s-71 9 -105 9z
M715.999 1274c28 0 50.334 -8.00098 67.001 -24.001s25 -37.667 25 -65c0 -26.667 -8.33301 -48.167 -25 -64.5s-39.334 -24.5 -68.001 -24.5c-28 0 -50.167 8.33301 -66.5 25s-24.5 38.334 -24.5 65.001s8.33301 48 25 64s39 24 67 24zM343 1274
c28 0 50.167 -7.83398 66.5 -23.501s24.5 -37.5 24.5 -65.5c0 -26.667 -8.16699 -48.167 -24.5 -64.5s-38.833 -24.5 -67.5 -24.5c-28 0 -50.167 8.33301 -66.5 25s-24.5 38.334 -24.5 65.001s8.33301 48 25 64s39 24 67 24z" />
    <glyph glyph-name="aring" unicode="&#xe5;" horiz-adv-x="1060" 
d="M896 224c0 -34.667 1.16797 -61.1689 3.50098 -79.502s6.83301 -31.666 13.5 -39.999s16.167 -13 28.5 -14s28.5 -1.5 48.5 -1.5h45v-89c-52.667 0 -104.834 -0.333008 -156.501 -1s-99.834 -1.66699 -144.501 -3v137c-40 -51.333 -87.5 -89.833 -142.5 -115.5
s-119.167 -38.5 -192.5 -38.5c-48 0 -91.333 6.83301 -130 20.5s-71.667 32.5 -99 56.5s-48.5 52.667 -63.5 86s-22.5 70 -22.5 110c0 42.667 8.66699 81.5 26 116.5s42.666 64.833 75.999 89.5s73.833 43.834 121.5 57.501s102.167 20.5 163.5 20.5
c42 0 84.333 -3.16699 127 -9.5s86 -15.166 130 -26.499v144c0 60.667 -20.167 107 -60.5 139s-102.166 48 -185.499 48c-70 0 -124.833 -13.5 -164.5 -40.5s-66.167 -68.833 -79.5 -125.5l-92 11l13 176c42.667 19.333 92.5 35.166 149.5 47.499s121.167 18.5 192.5 18.5
c70.667 0 131 -6.33301 181 -19s90.833 -32 122.5 -58s54.834 -59.167 69.501 -99.5s22 -87.833 22 -142.5v-375zM509.001 451.998c-40 0 -76.002 -4.49805 -108.002 -13.498s-59.167 -21.833 -81.5 -38.5s-39.5 -37 -51.5 -61s-18 -51.333 -18 -82
c0 -27.333 4.83301 -51.5 14.5 -72.5s23.334 -38.833 41.001 -53.5s38.834 -26.334 63.501 -35.001s51.667 -12.667 81 -12c32 -0.666992 64.5 4.16602 97.5 14.499s62.833 25 89.5 44s48.5 43 65.5 72s25.5 63.833 25.5 104.5v98c-40 11.333 -78 20 -114 26s-71 9 -105 9z
M528.999 1428c30.667 0 59.3311 -5.5 85.998 -16.5s49.834 -26 69.501 -45s35.167 -41.5 46.5 -67.5s17 -53.667 17 -83c0 -30 -5.66699 -58.167 -17 -84.5s-27 -49.166 -47 -68.499s-43.333 -34.5 -70 -45.5s-55 -16.5 -85 -16.5c-30.667 0 -59.167 5.5 -85.5 16.5
s-49.333 26.167 -69 45.5s-35.167 42.166 -46.5 68.499s-17 54.5 -17 84.5s5.66699 57.833 17 83.5s26.833 48 46.5 67s42.834 34 69.501 45s55 16.5 85 16.5zM528.996 1345c-18.667 0 -36.167 -3.33301 -52.5 -10s-30.5 -15.834 -42.5 -27.501s-21.333 -25.334 -28 -41.001
s-10 -32.5 -10 -50.5c0 -18.667 3.33301 -36 10 -52s16 -30 28 -42s26 -21.333 42 -28s33.667 -10 53 -10c18.667 0 36.167 3.33301 52.5 10s30.5 16 42.5 28s21.5 26 28.5 42s10.5 33.333 10.5 52c0 18 -3.5 34.833 -10.5 50.5s-16.5 29.334 -28.5 41.001
s-26.167 20.834 -42.5 27.501s-33.833 10 -52.5 10z" />
    <glyph glyph-name="ae" unicode="&#xe6;" horiz-adv-x="1721" 
d="M814 171c-28 -36 -57.3369 -66.1719 -88.0039 -90.5049s-63 -44.166 -97 -59.499s-69.833 -26.333 -107.5 -33s-77.5 -10 -119.5 -10c-47.333 0 -90.333 6.66699 -129 20s-72 32 -100 56s-49.667 52.667 -65 86s-23 70.333 -23 111c0 42.667 8.83301 81.334 26.5 116.001
s43 64.334 76 89.001s73.5 43.834 121.5 57.501s102.333 20.5 163 20.5c82 0 167.667 -11.667 257 -35v146c0 62.667 -19.667 110.167 -59 142.5s-101.333 48.5 -186 48.5c-71.333 0 -126.833 -13.5 -166.5 -40.5s-65.5 -69.167 -77.5 -126.5l-99 11l15 176
c100.667 44 216.334 66 347.001 66c91.333 0 165.5 -12.667 222.5 -38s98.5 -64 124.5 -116c40 48 89.333 85.667 148 113s124.334 41 197.001 41c70.667 0 133.834 -11 189.501 -33s102.5 -53.833 140.5 -95.5s67.167 -92.667 87.5 -153s30.833 -128.833 31.5 -205.5
l-62 -19h-681c0.666992 -53.333 8.83398 -101.333 24.501 -144s37.667 -79.167 66 -109.5s62.5 -53.666 102.5 -69.999s84.667 -24.5 134 -24.5c65.333 0 122 15.667 170 47s85.667 77.333 113 138l122 -19c-30 -84.667 -81.833 -149.5 -155.5 -194.5
s-164.5 -67.5 -272.5 -67.5c-88 0 -165.167 17.167 -231.5 51.5s-119.5 83.5 -159.5 147.5zM728.996 414.995c-40 10.667 -78.3359 19 -115.003 25s-72 9 -106 9c-39.333 0 -74.833 -4.33301 -106.5 -13s-58.667 -21.334 -81 -38.001s-39.5 -37.167 -51.5 -61.5
s-18 -51.833 -18 -82.5c0 -27.333 4.83301 -52.166 14.5 -74.499s23.334 -41.5 41.001 -57.5s38.834 -28.5 63.501 -37.5s51.667 -13.5 81 -13.5c32.667 0 65.5 5.16699 98.5 15.5s62.833 25.833 89.5 46.5s48.334 46.667 65.001 78s25 68 25 110v94zM1480.99 505.995
c-8.66699 102.667 -36.833 181.667 -84.5 237s-114.5 83 -200.5 83c-83.333 0 -150.5 -27.667 -201.5 -83s-82.167 -134.333 -93.5 -237h580z" />
    <glyph glyph-name="ccedilla" unicode="&#xe7;" horiz-adv-x="1011" 
d="M912 576l-98 -0.00585938c-3.33301 80.667 -27.166 140.5 -71.499 179.5s-105.5 58.5 -183.5 58.5c-47.333 0 -89.666 -8.5 -126.999 -25.5s-68.833 -41.167 -94.5 -72.5s-45.334 -69.666 -59.001 -114.999s-20.5 -96.333 -20.5 -153c0 -57.333 7 -107.5 21 -150.5
s34.167 -80.667 60.5 -113s58.166 -57.166 95.499 -74.499s79.333 -26 126 -26c66.667 0 122.5 16.333 167.5 49s76.5 81.667 94.5 147l117 -20c-10.667 -46 -27.5 -86.833 -50.5 -122.5s-51.5 -64.5 -85.5 -86.5s-73 -39.5 -117 -52.5s-92.333 -19.5 -145 -19.5
c-70 0 -133.333 11.167 -190 33.5s-105 52.833 -145 91.5s-71 86.834 -93 144.501s-33 121.834 -33 192.501c0 66.667 10.667 128.834 32 186.501s51.5 107.834 90.5 150.501s85.333 76.667 139 102s113.167 38 178.5 38c26.667 0 53 -1.66699 79 -5s50.833 -9 74.5 -17
s45.667 -19 66 -33s38.5 -31.333 54.5 -52l25 79c2.66699 0 8.5 -0.166992 17.5 -0.5s18.5 -0.5 28.5 -0.5s19.5 -0.166992 28.5 -0.5s14.833 -0.5 17.5 -0.5v-312zM529 -6.00586l-5.99707 -89.998c0.666992 0 3.5 0.166992 8.5 0.5s9.16699 0.5 12.5 0.5
c27.333 0 52 -4 74 -12s40.667 -19 56 -33s27.166 -30.833 35.499 -50.5s12.5 -41.167 12.5 -64.5c0 -28 -5.83301 -52.667 -17.5 -74s-28.334 -39 -50.001 -53s-47.667 -24.5 -78 -31.5s-64.5 -10.5 -102.5 -10.5c-27.333 0 -55.5 2.16699 -84.5 6.5
s-62.5 13.166 -100.5 26.499l19 71c28 -10.667 54.333 -18.334 79 -23.001s47.667 -7 69 -7c44 0 77.667 7.66699 101 23s35 39 35 71c0 28 -10.833 48.333 -32.5 61s-52.834 19.667 -93.501 21h-9.5c-3 0 -6.16699 -0.333008 -9.5 -1l14 169h68z" />
    <glyph glyph-name="egrave" unicode="&#xe8;" horiz-adv-x="1099" 
d="M961 417l-707.999 -0.00292969c0.666992 -53.333 9 -100.333 25 -141s38.667 -75.167 68 -103.5s64.5 -50.166 105.5 -65.499s86.5 -23 136.5 -23c70 0 130.667 14.333 182 43s91 73 119 133l121 -19c-30.667 -84.667 -84.5 -149.5 -161.5 -194.5
s-171.5 -67.5 -283.5 -67.5c-75.333 0 -143 11.333 -203 34s-110.833 54.667 -152.5 96s-73.5 89.833 -95.5 145.5s-33 119.167 -33 190.5c0 72 11.333 136.833 34 194.5s54.667 107.167 96 148.5s91.166 73.333 149.499 96s123.166 34 194.499 34
c72 0 136.667 -10.833 194 -32.5s106 -53.167 146 -94.5s70.833 -91.666 92.5 -150.999s32.834 -127.666 33.501 -204.999zM859.001 506.997c-8 100.667 -38 177 -90 229s-122.667 78 -212 78c-42 0 -80.333 -7.16699 -115 -21.5s-65 -34.333 -91 -60
s-47.167 -57.167 -63.5 -94.5s-27.5 -81 -33.5 -131h605zM746.001 1029l-83 -0.000976562c-15.333 13.333 -33.333 28.166 -54 44.499l-65 51l-68 53.5c-22.667 18 -43 35.833 -61 53.5s-32.833 34.334 -44.5 50.001s-18.167 29.834 -19.5 42.501
c0 10.667 7.33301 19.667 22 27s32 11 52 11c18 0 35.833 -3 53.5 -9s30.167 -13.667 37.5 -23z" />
    <glyph glyph-name="eacute" unicode="&#xe9;" horiz-adv-x="1099" 
d="M543 1271c8 10.667 17.167 20.998 27.5 30.998s21.333 18.833 33 26.5s23.667 13.834 36 18.501s24.5 7 36.5 7c17.333 0 32 -3.16699 44 -9.5s18 -14.833 18 -25.5c0 -9.33301 -5 -18.666 -15 -27.999l-283 -262h-84zM961 416.998l-707.999 -0.00292969
c0.666992 -53.333 9 -100.333 25 -141s38.667 -75.167 68 -103.5s64.5 -50.166 105.5 -65.499s86.5 -23 136.5 -23c70 0 130.667 14.333 182 43s91 73 119 133l121 -19c-30.667 -84.667 -84.5 -149.5 -161.5 -194.5s-171.5 -67.5 -283.5 -67.5
c-75.333 0 -143 11.333 -203 34s-110.833 54.667 -152.5 96s-73.5 89.833 -95.5 145.5s-33 119.167 -33 190.5c0 72 11.333 136.833 34 194.5s54.667 107.167 96 148.5s91.166 73.333 149.499 96s123.166 34 194.499 34c72 0 136.667 -10.833 194 -32.5
s106 -53.167 146 -94.5s70.833 -91.666 92.5 -150.999s32.834 -127.666 33.501 -204.999zM859.001 506.995c-8 100.667 -38 177 -90 229s-122.667 78 -212 78c-42 0 -80.333 -7.16699 -115 -21.5s-65 -34.333 -91 -60s-47.167 -57.167 -63.5 -94.5s-27.5 -81 -33.5 -131h605
z" />
    <glyph glyph-name="ecircumflex" unicode="&#xea;" horiz-adv-x="1099" 
d="M613 1350l239 -317h-86l-220 195l-216 -195h-83l230 317h136zM961 417l-707.999 -0.00292969c0.666992 -53.333 9 -100.333 25 -141s38.667 -75.167 68 -103.5s64.5 -50.166 105.5 -65.499s86.5 -23 136.5 -23c70 0 130.667 14.333 182 43s91 73 119 133l121 -19
c-30.667 -84.667 -84.5 -149.5 -161.5 -194.5s-171.5 -67.5 -283.5 -67.5c-75.333 0 -143 11.333 -203 34s-110.833 54.667 -152.5 96s-73.5 89.833 -95.5 145.5s-33 119.167 -33 190.5c0 72 11.333 136.833 34 194.5s54.667 107.167 96 148.5s91.166 73.333 149.499 96
s123.166 34 194.499 34c72 0 136.667 -10.833 194 -32.5s106 -53.167 146 -94.5s70.833 -91.666 92.5 -150.999s32.834 -127.666 33.501 -204.999zM859.001 506.997c-8 100.667 -38 177 -90 229s-122.667 78 -212 78c-42 0 -80.333 -7.16699 -115 -21.5s-65 -34.333 -91 -60
s-47.167 -57.167 -63.5 -94.5s-27.5 -81 -33.5 -131h605z" />
    <glyph glyph-name="edieresis" unicode="&#xeb;" horiz-adv-x="1099" 
d="M736 1274c28 0 50.334 -8.00098 67.001 -24.001s25 -37.667 25 -65c0 -26.667 -8.33301 -48.167 -25 -64.5s-39.334 -24.5 -68.001 -24.5c-28 0 -50.167 8.33301 -66.5 25s-24.5 38.334 -24.5 65.001s8.33301 48 25 64s39 24 67 24zM363.001 1274
c28 0 50.167 -7.83398 66.5 -23.501s24.5 -37.5 24.5 -65.5c0 -26.667 -8.16699 -48.167 -24.5 -64.5s-38.833 -24.5 -67.5 -24.5c-28 0 -50.167 8.33301 -66.5 25s-24.5 38.334 -24.5 65.001s8.33301 48 25 64s39 24 67 24zM961.001 416.998l-707.999 -0.00292969
c0.666992 -53.333 9 -100.333 25 -141s38.667 -75.167 68 -103.5s64.5 -50.166 105.5 -65.499s86.5 -23 136.5 -23c70 0 130.667 14.333 182 43s91 73 119 133l121 -19c-30.667 -84.667 -84.5 -149.5 -161.5 -194.5s-171.5 -67.5 -283.5 -67.5
c-75.333 0 -143 11.333 -203 34s-110.833 54.667 -152.5 96s-73.5 89.833 -95.5 145.5s-33 119.167 -33 190.5c0 72 11.333 136.833 34 194.5s54.667 107.167 96 148.5s91.166 73.333 149.499 96s123.166 34 194.499 34c72 0 136.667 -10.833 194 -32.5
s106 -53.167 146 -94.5s70.833 -91.666 92.5 -150.999s32.834 -127.666 33.501 -204.999zM859.002 506.995c-8 100.667 -38 177 -90 229s-122.667 78 -212 78c-42 0 -80.333 -7.16699 -115 -21.5s-65 -34.333 -91 -60s-47.167 -57.167 -63.5 -94.5s-27.5 -81 -33.5 -131h605
z" />
    <glyph glyph-name="igrave" unicode="&#xec;" horiz-adv-x="559" 
d="M373 152c0 -14.667 2.66309 -26.165 7.99609 -34.498s14 -14.5 26 -18.5s27.5 -6.33301 46.5 -7s42.167 -1 69.5 -1v-91c-17.333 0 -40.666 0.166992 -69.999 0.5s-58.666 0.5 -87.999 0.5s-55.333 0.166992 -78 0.5s-36 0.5 -40 0.5c-38 0 -71.5 -0.333008 -100.5 -1
s-58.833 -1 -89.5 -1v91c36 0 64 1 84 3s34.833 5.33301 44.5 10s15.334 11.167 17.001 19.5s2.5 19.166 2.5 32.499v613c0 9.33301 -2.5 16.333 -7.5 21s-13.167 8.16699 -24.5 10.5s-26.166 3.66602 -44.499 3.99902s-40.5 0.833008 -66.5 1.5v89
c56.667 0 110 0.333008 160 1s100.333 2 151 4v-748zM478.996 1029l-83 -0.000976562c-15.333 13.333 -33.333 28.166 -54 44.499l-65 51l-68 53.5c-22.667 18 -43 35.833 -61 53.5s-32.833 34.334 -44.5 50.001s-18.167 29.834 -19.5 42.501c0 10.667 7.33301 19.667 22 27
s32 11 52 11c18 0 35.833 -3 53.5 -9s30.167 -13.667 37.5 -23z" />
    <glyph glyph-name="iacute" unicode="&#xed;" horiz-adv-x="559" 
d="M275 1271c8 10.667 17.167 20.998 27.5 30.998s21.333 18.833 33 26.5s23.667 13.834 36 18.501s24.5 7 36.5 7c17.333 0 32 -3.16699 44 -9.5s18 -14.833 18 -25.5c0 -9.33301 -5 -18.666 -15 -27.999l-283 -262h-84zM373 151.998
c0 -14.667 2.66309 -26.165 7.99609 -34.498s14 -14.5 26 -18.5s27.5 -6.33301 46.5 -7s42.167 -1 69.5 -1v-91c-17.333 0 -40.666 0.166992 -69.999 0.5s-58.666 0.5 -87.999 0.5s-55.333 0.166992 -78 0.5s-36 0.5 -40 0.5c-38 0 -71.5 -0.333008 -100.5 -1
s-58.833 -1 -89.5 -1v91c36 0 64 1 84 3s34.833 5.33301 44.5 10s15.334 11.167 17.001 19.5s2.5 19.166 2.5 32.499v613c0 9.33301 -2.5 16.333 -7.5 21s-13.167 8.16699 -24.5 10.5s-26.166 3.66602 -44.499 3.99902s-40.5 0.833008 -66.5 1.5v89
c56.667 0 110 0.333008 160 1s100.333 2 151 4v-748z" />
    <glyph glyph-name="icircumflex" unicode="&#xee;" horiz-adv-x="559" 
d="M346 1350l239 -317h-86l-220 195l-216 -195h-83l230 317h136zM373 152c0 -14.667 2.66309 -26.165 7.99609 -34.498s14 -14.5 26 -18.5s27.5 -6.33301 46.5 -7s42.167 -1 69.5 -1v-91c-17.333 0 -40.666 0.166992 -69.999 0.5s-58.666 0.5 -87.999 0.5
s-55.333 0.166992 -78 0.5s-36 0.5 -40 0.5c-38 0 -71.5 -0.333008 -100.5 -1s-58.833 -1 -89.5 -1v91c36 0 64 1 84 3s34.833 5.33301 44.5 10s15.334 11.167 17.001 19.5s2.5 19.166 2.5 32.499v613c0 9.33301 -2.5 16.333 -7.5 21s-13.167 8.16699 -24.5 10.5
s-26.166 3.66602 -44.499 3.99902s-40.5 0.833008 -66.5 1.5v89c56.667 0 110 0.333008 160 1s100.333 2 151 4v-748z" />
    <glyph glyph-name="idieresis" unicode="&#xef;" horiz-adv-x="559" 
d="M468 1274c28 0 50.334 -8.00098 67.001 -24.001s25 -37.667 25 -65c0 -26.667 -8.33301 -48.167 -25 -64.5s-39.334 -24.5 -68.001 -24.5c-28 0 -50.167 8.33301 -66.5 25s-24.5 38.334 -24.5 65.001s8.33301 48 25 64s39 24 67 24zM95.001 1274
c28 0 50.167 -7.83398 66.5 -23.501s24.5 -37.5 24.5 -65.5c0 -26.667 -8.16699 -48.167 -24.5 -64.5s-38.833 -24.5 -67.5 -24.5c-28 0 -50.167 8.33301 -66.5 25s-24.5 38.334 -24.5 65.001s8.33301 48 25 64s39 24 67 24zM373.001 151.998
c0 -14.667 2.66309 -26.165 7.99609 -34.498s14 -14.5 26 -18.5s27.5 -6.33301 46.5 -7s42.167 -1 69.5 -1v-91c-17.333 0 -40.666 0.166992 -69.999 0.5s-58.666 0.5 -87.999 0.5s-55.333 0.166992 -78 0.5s-36 0.5 -40 0.5c-38 0 -71.5 -0.333008 -100.5 -1
s-58.833 -1 -89.5 -1v91c36 0 64 1 84 3s34.833 5.33301 44.5 10s15.334 11.167 17.001 19.5s2.5 19.166 2.5 32.499v613c0 9.33301 -2.5 16.333 -7.5 21s-13.167 8.16699 -24.5 10.5s-26.166 3.66602 -44.499 3.99902s-40.5 0.833008 -66.5 1.5v89
c56.667 0 110 0.333008 160 1s100.333 2 151 4v-748z" />
    <glyph glyph-name="eth" unicode="&#xf0;" horiz-adv-x="1127" 
d="M767 846c-9.33301 18.667 -19.4961 38 -30.4961 58s-23.667 40.5 -38 61.5s-31 42.333 -50 64s-40.833 43.5 -65.5 65.5l-265 -118l-57 61l263 116c-25.333 23.333 -51.5 46.166 -78.5 68.499s-56.167 44.5 -87.5 66.5l148 28l78 -49.5c26.667 -17.667 52 -36.5 76 -56.5
l240 105l57 -59l-237 -104c49.333 -53.333 93.666 -106.666 132.999 -159.999s72.666 -106.833 99.999 -160.5s48.333 -107.667 63 -162s22 -109.5 22 -165.5c0 -86 -10.833 -162.167 -32.5 -228.5s-52.834 -122 -93.501 -167s-90 -79.167 -148 -102.5s-123 -35 -195 -35
c-73.333 0 -139.833 11.167 -199.5 33.5s-110.5 54.166 -152.5 95.499s-74.333 91.333 -97 150s-34 124.334 -34 197.001c0 69.333 11.333 133 34 191s54 107.833 94 149.5s87.833 74.167 143.5 97.5s116.5 35 182.5 35c42 0 82.167 -6.83301 120.5 -20.5
s73.166 -32.5 104.499 -56.5c0 1.33301 0.666992 2 2 2zM259.004 447c0 -56.667 7.16992 -107.835 21.5029 -153.502s34.666 -84.667 60.999 -117s58 -57.166 95 -74.499s78.5 -26 124.5 -26s87.833 8.83301 125.5 26.5s69.667 43 96 76s46.666 73.333 60.999 121
s21.5 101.5 21.5 161.5c0 52 -6.83301 99.833 -20.5 143.5s-33.334 81.334 -59.001 113.001s-57.334 56.5 -95.001 74.5s-80.5 27 -128.5 27c-46.667 0 -88.667 -8.66699 -126 -26s-69.166 -42 -95.499 -74s-46.5 -71 -60.5 -117s-21 -97.667 -21 -155z" />
    <glyph glyph-name="ntilde" unicode="&#xf1;" horiz-adv-x="1162" 
d="M35 89c37.333 0 66.3379 0.660156 87.0049 1.99316s36 4 46 8s16 9.33301 18 16s3 15.334 3 26.001v632c0 8 -2.16699 14.333 -6.5 19s-12 8 -23 10s-26 3.16699 -45 3.5s-43.833 0.5 -74.5 0.5v89c59.333 0 114 0.333008 164 1s99 2 147 4v-141
c45.333 51.333 97.5 90.5 156.5 117.5s121.833 40.833 188.5 41.5c97.333 -0.666992 172 -27.167 224 -79.5s78 -135.166 78 -248.499v-460c0 -10.667 2.33301 -18.667 7 -24s12.5 -9.16602 23.5 -11.499s25.5 -3.66602 43.5 -3.99902s40 -0.833008 66 -1.5v-89h-47.5h-49
c-17 0 -35 0.166992 -54 0.5s-40.167 0.833008 -63.5 1.5c-48.667 0 -92.334 -0.333008 -131.001 -1s-77.334 -1 -116.001 -1v89c38 0 67.333 0.666992 88 2s35.667 3.83301 45 7.5s14.833 8.33398 16.5 14.001s2.5 13.167 2.5 22.5v397c0 44.667 -2.5 85.167 -7.5 121.5
s-14.333 66.166 -28 89.499s-32.334 40.833 -56.001 52.5s-54.167 17.834 -91.5 18.501c-36 -0.666992 -69 -6.66699 -99 -18s-56.833 -25.166 -80.5 -41.499s-44.334 -33.666 -62.001 -51.999s-32.834 -35.5 -45.501 -51.5c-2 -49.333 -3 -100 -3 -152v-363
c0 -12 2.83301 -21.167 8.5 -27.5s14.667 -11 27 -14s28 -4.66699 47 -5s42.167 -0.5 69.5 -0.5v-89h-51h-51.5c-17.667 0 -36.667 0.166992 -57 0.5s-42.5 0.833008 -66.5 1.5c-50 0 -94.333 -0.333008 -133 -1s-76.667 -1 -114 -1v89zM897.005 1294.99
c-12.667 -63.333 -36.165 -112.334 -70.498 -147.001s-76.5 -52 -126.5 -52c-21.333 0 -43.666 3.83301 -66.999 11.5s-46.666 16 -69.999 25s-46 17.333 -68 25s-42.333 11.5 -61 11.5c-26 0 -47.333 -7.16699 -64 -21.5s-30.334 -37.166 -41.001 -68.499h-66
c31.333 134.667 95.333 202 192 202c22 0 44.667 -3.83301 68 -11.5s46.666 -16.167 69.999 -25.5s46.166 -17.833 68.499 -25.5s44.166 -11.5 65.499 -11.5c48.667 0 83.667 29.333 105 88h65z" />
    <glyph glyph-name="ograve" unicode="&#xf2;" horiz-adv-x="1115" 
d="M557 918c70 0 134.335 -11.001 193.002 -33.001s109.167 -53.667 151.5 -95s75.166 -91.333 98.499 -150s35 -123 35 -193c0 -67.333 -11.667 -130.166 -35 -188.499s-56 -108.166 -98 -149.499s-92.333 -73.333 -151 -96s-123.334 -34 -194.001 -34
s-135.167 11.167 -193.5 33.5s-108.5 54.333 -150.5 96s-74.5 91.667 -97.5 150s-34.5 121.166 -34.5 188.499c0 70 11.667 134.167 35 192.5s56 108.333 98 150s92.167 73.5 150.5 95.5s122.5 33 192.5 33zM557.002 813.999c-46.667 0 -88.667 -8.66699 -126 -26
s-69.166 -41.666 -95.499 -72.999s-46.5 -69.833 -60.5 -115.5s-21 -96.167 -21 -151.5c0 -52 7.16699 -100.833 21.5 -146.5s34.666 -84.667 60.999 -117s58.166 -57.166 95.499 -74.499s79 -26 125 -26s87.667 8.66699 125 26s69.333 42.166 96 74.499
s47.167 71.333 61.5 117s21.5 94.5 21.5 146.5c0 54.667 -7.16699 105 -21.5 151s-34.666 84.667 -60.999 116s-58.333 55.666 -96 72.999s-79.5 26 -125.5 26zM755.002 1029l-83 -0.000976562c-15.333 13.333 -33.333 28.166 -54 44.499l-65 51l-68 53.5
c-22.667 18 -43 35.833 -61 53.5s-32.833 34.334 -44.5 50.001s-18.167 29.834 -19.5 42.501c0 10.667 7.33301 19.667 22 27s32 11 52 11c18 0 35.833 -3 53.5 -9s30.167 -13.667 37.5 -23z" />
    <glyph glyph-name="oacute" unicode="&#xf3;" horiz-adv-x="1115" 
d="M552 1271c8 10.667 17.167 20.998 27.5 30.998s21.333 18.833 33 26.5s23.667 13.834 36 18.501s24.5 7 36.5 7c17.333 0 32 -3.16699 44 -9.5s18 -14.833 18 -25.5c0 -9.33301 -5 -18.666 -15 -27.999l-283 -262h-84zM557 917.998c70 0 134.335 -11.001 193.002 -33.001
s109.167 -53.667 151.5 -95s75.166 -91.333 98.499 -150s35 -123 35 -193c0 -67.333 -11.667 -130.166 -35 -188.499s-56 -108.166 -98 -149.499s-92.333 -73.333 -151 -96s-123.334 -34 -194.001 -34s-135.167 11.167 -193.5 33.5s-108.5 54.333 -150.5 96
s-74.5 91.667 -97.5 150s-34.5 121.166 -34.5 188.499c0 70 11.667 134.167 35 192.5s56 108.333 98 150s92.167 73.5 150.5 95.5s122.5 33 192.5 33zM557.002 813.997c-46.667 0 -88.667 -8.66699 -126 -26s-69.166 -41.666 -95.499 -72.999s-46.5 -69.833 -60.5 -115.5
s-21 -96.167 -21 -151.5c0 -52 7.16699 -100.833 21.5 -146.5s34.666 -84.667 60.999 -117s58.166 -57.166 95.499 -74.499s79 -26 125 -26s87.667 8.66699 125 26s69.333 42.166 96 74.499s47.167 71.333 61.5 117s21.5 94.5 21.5 146.5c0 54.667 -7.16699 105 -21.5 151
s-34.666 84.667 -60.999 116s-58.333 55.666 -96 72.999s-79.5 26 -125.5 26z" />
    <glyph glyph-name="ocircumflex" unicode="&#xf4;" horiz-adv-x="1115" 
d="M621 1350l239 -317h-86l-220 195l-216 -195h-83l230 317h136zM557 918c70 0 134.335 -11.001 193.002 -33.001s109.167 -53.667 151.5 -95s75.166 -91.333 98.499 -150s35 -123 35 -193c0 -67.333 -11.667 -130.166 -35 -188.499s-56 -108.166 -98 -149.499
s-92.333 -73.333 -151 -96s-123.334 -34 -194.001 -34s-135.167 11.167 -193.5 33.5s-108.5 54.333 -150.5 96s-74.5 91.667 -97.5 150s-34.5 121.166 -34.5 188.499c0 70 11.667 134.167 35 192.5s56 108.333 98 150s92.167 73.5 150.5 95.5s122.5 33 192.5 33z
M557.002 813.999c-46.667 0 -88.667 -8.66699 -126 -26s-69.166 -41.666 -95.499 -72.999s-46.5 -69.833 -60.5 -115.5s-21 -96.167 -21 -151.5c0 -52 7.16699 -100.833 21.5 -146.5s34.666 -84.667 60.999 -117s58.166 -57.166 95.499 -74.499s79 -26 125 -26
s87.667 8.66699 125 26s69.333 42.166 96 74.499s47.167 71.333 61.5 117s21.5 94.5 21.5 146.5c0 54.667 -7.16699 105 -21.5 151s-34.666 84.667 -60.999 116s-58.333 55.666 -96 72.999s-79.5 26 -125.5 26z" />
    <glyph glyph-name="otilde" unicode="&#xf5;" horiz-adv-x="1115" 
d="M557 918c70 0 134.335 -11.001 193.002 -33.001s109.167 -53.667 151.5 -95s75.166 -91.333 98.499 -150s35 -123 35 -193c0 -67.333 -11.667 -130.166 -35 -188.499s-56 -108.166 -98 -149.499s-92.333 -73.333 -151 -96s-123.334 -34 -194.001 -34
s-135.167 11.167 -193.5 33.5s-108.5 54.333 -150.5 96s-74.5 91.667 -97.5 150s-34.5 121.166 -34.5 188.499c0 70 11.667 134.167 35 192.5s56 108.333 98 150s92.167 73.5 150.5 95.5s122.5 33 192.5 33zM557.002 813.999c-46.667 0 -88.667 -8.66699 -126 -26
s-69.166 -41.666 -95.499 -72.999s-46.5 -69.833 -60.5 -115.5s-21 -96.167 -21 -151.5c0 -52 7.16699 -100.833 21.5 -146.5s34.666 -84.667 60.999 -117s58.166 -57.166 95.499 -74.499s79 -26 125 -26s87.667 8.66699 125 26s69.333 42.166 96 74.499
s47.167 71.333 61.5 117s21.5 94.5 21.5 146.5c0 54.667 -7.16699 105 -21.5 151s-34.666 84.667 -60.999 116s-58.333 55.666 -96 72.999s-79.5 26 -125.5 26zM875.002 1295c-12.667 -63.333 -36.165 -112.334 -70.498 -147.001s-76.5 -52 -126.5 -52
c-21.333 0 -43.666 3.83301 -66.999 11.5s-46.666 16 -69.999 25s-46 17.333 -68 25s-42.333 11.5 -61 11.5c-26 0 -47.333 -7.16699 -64 -21.5s-30.334 -37.166 -41.001 -68.499h-66c31.333 134.667 95.333 202 192 202c22 0 44.667 -3.83301 68 -11.5
s46.666 -16.167 69.999 -25.5s46.166 -17.833 68.499 -25.5s44.166 -11.5 65.499 -11.5c48.667 0 83.667 29.333 105 88h65z" />
    <glyph glyph-name="odieresis" unicode="&#xf6;" horiz-adv-x="1115" 
d="M744 1274c28 0 50.334 -8.00098 67.001 -24.001s25 -37.667 25 -65c0 -26.667 -8.33301 -48.167 -25 -64.5s-39.334 -24.5 -68.001 -24.5c-28 0 -50.167 8.33301 -66.5 25s-24.5 38.334 -24.5 65.001s8.33301 48 25 64s39 24 67 24zM371.001 1274
c28 0 50.167 -7.83398 66.5 -23.501s24.5 -37.5 24.5 -65.5c0 -26.667 -8.16699 -48.167 -24.5 -64.5s-38.833 -24.5 -67.5 -24.5c-28 0 -50.167 8.33301 -66.5 25s-24.5 38.334 -24.5 65.001s8.33301 48 25 64s39 24 67 24zM557.001 917.998
c70 0 134.335 -11.001 193.002 -33.001s109.167 -53.667 151.5 -95s75.166 -91.333 98.499 -150s35 -123 35 -193c0 -67.333 -11.667 -130.166 -35 -188.499s-56 -108.166 -98 -149.499s-92.333 -73.333 -151 -96s-123.334 -34 -194.001 -34s-135.167 11.167 -193.5 33.5
s-108.5 54.333 -150.5 96s-74.5 91.667 -97.5 150s-34.5 121.166 -34.5 188.499c0 70 11.667 134.167 35 192.5s56 108.333 98 150s92.167 73.5 150.5 95.5s122.5 33 192.5 33zM557.003 813.997c-46.667 0 -88.667 -8.66699 -126 -26s-69.166 -41.666 -95.499 -72.999
s-46.5 -69.833 -60.5 -115.5s-21 -96.167 -21 -151.5c0 -52 7.16699 -100.833 21.5 -146.5s34.666 -84.667 60.999 -117s58.166 -57.166 95.499 -74.499s79 -26 125 -26s87.667 8.66699 125 26s69.333 42.166 96 74.499s47.167 71.333 61.5 117s21.5 94.5 21.5 146.5
c0 54.667 -7.16699 105 -21.5 151s-34.666 84.667 -60.999 116s-58.333 55.666 -96 72.999s-79.5 26 -125.5 26z" />
    <glyph glyph-name="divide" unicode="&#xf7;" horiz-adv-x="1537" 
d="M768 1096c14 0 26.999 -2.66895 38.999 -8.00195s22.5 -12.333 31.5 -21s16 -19 21 -31s7.5 -24.333 7.5 -37c0 -27.333 -9.66699 -50.166 -29 -68.499s-42.666 -27.5 -69.999 -27.5c-14 0 -27 2.5 -39 7.5s-22.5 11.833 -31.5 20.5s-16 18.834 -21 30.501
s-7.5 24.167 -7.5 37.5c0 12.667 2.66699 25 8 37s12.5 22.333 21.5 31s19.5 15.667 31.5 21s24.667 8 38 8zM1338 560.998h-1141v120h1141v-120zM767.999 338.998c13.333 0 26 -2.66895 38 -8.00195s22.5 -12.5 31.5 -21.5s16.167 -19.5 21.5 -31.5s8 -24.333 8 -37
c0 -13.333 -2.66699 -25.666 -8 -36.999s-12.5 -21.5 -21.5 -30.5s-19.5 -16 -31.5 -21s-24.667 -7.5 -38 -7.5c-14 0 -27 2.5 -39 7.5s-22.5 11.833 -31.5 20.5s-16 18.834 -21 30.501s-7.5 24.167 -7.5 37.5s2.66699 26 8 38s12.5 22.5 21.5 31.5s19.5 16 31.5 21
s24.667 7.5 38 7.5z" />
    <glyph glyph-name="oslash" unicode="&#xf8;" horiz-adv-x="1115" 
d="M1043 972l-144 -177c91.333 -86 137 -202.333 137 -349c0 -70.667 -11.333 -135 -34 -193s-54.834 -107.833 -96.501 -149.5s-91.667 -74 -150 -97s-122.833 -34.5 -193.5 -34.5c-52 0 -101.833 6.5 -149.5 19.5s-91.5 32.167 -131.5 57.5l-128 -159l-85 26l148 183
c-44 43.333 -77.333 94.5 -100 153.5s-34 124.5 -34 196.5c0 70 11.333 134.167 34 192.5s54.834 108.166 96.501 149.499s91.5 73.5 149.5 96.5s122.333 34.5 193 34.5c54 0 104 -6.66699 150 -20s89 -32.666 129 -57.999l126 152zM753 750
c-25.333 24 -54.666 42.167 -87.999 54.5s-68.666 18.5 -105.999 18.5c-46.667 0 -88.834 -8.66699 -126.501 -26s-69.834 -42 -96.501 -74s-47.167 -70.667 -61.5 -116s-21.5 -95.666 -21.5 -150.999c0 -92.667 20 -173.334 60 -242.001zM363 143
c28 -23.333 58.3311 -40.833 90.998 -52.5s67.667 -17.5 105 -17.5c46 0 87.833 8.83301 125.5 26.5s69.834 42.667 96.501 75s47.334 71.333 62.001 117s22 96.5 22 152.5c0 48 -5.33301 92.167 -16 132.5s-25.667 75.5 -45 105.5z" />
    <glyph glyph-name="ugrave" unicode="&#xf9;" horiz-adv-x="1170" 
d="M472 -21c-63.333 0 -114.002 9.66406 -152.002 28.9971s-67.167 47.833 -87.5 85.5s-33.666 84 -39.999 139s-9.5 118.167 -9.5 189.5v317c0 16.667 -1.5 29.667 -4.5 39s-9.5 16 -19.5 20s-24.5 6.33301 -43.5 7s-44.167 1 -75.5 1v87h82
c25.333 0 50.166 0.166992 74.499 0.5s49 1 74 2s51.833 2.16699 80.5 3.5v-528c0 -42 1.83301 -81 5.5 -117s11.667 -66.667 24 -92s30 -44.666 53 -57.999s53.833 -20 92.5 -20c36 0 69.167 3.83301 99.5 11.5s57.833 18.667 82.5 33s46.334 31.5 65.001 51.5
s34.334 40.667 47.001 62c1.33301 24.667 2 49.167 2 73.5v74.5v344c0 18 -1.5 31.833 -4.5 41.5s-9.66699 16.834 -20 21.501s-25.166 7.33398 -44.499 8.00098s-45.333 1 -78 1v87c50.667 0 102.5 0.333008 155.5 1s106.167 2.66699 159.5 6v-760
c0 -12 1.66699 -21.5 5 -28.5s10.166 -12.167 20.499 -15.5s24.833 -5.33301 43.5 -6s43.334 -1 74.001 -1v-89c-60 0 -114.333 -0.333008 -163 -1s-95.667 -1.66699 -141 -3v134c-46 -50.667 -99.333 -88.5 -160 -113.5s-126.334 -37.5 -197.001 -37.5zM781.998 1029
l-83 -0.000976562c-15.333 13.333 -33.333 28.166 -54 44.499l-65 51l-68 53.5c-22.667 18 -43 35.833 -61 53.5s-32.833 34.334 -44.5 50.001s-18.167 29.834 -19.5 42.501c0 10.667 7.33301 19.667 22 27s32 11 52 11c18 0 35.833 -3 53.5 -9s30.167 -13.667 37.5 -23z
" />
    <glyph glyph-name="uacute" unicode="&#xfa;" horiz-adv-x="1170" 
d="M579 1271c8 10.667 17.167 20.998 27.5 30.998s21.333 18.833 33 26.5s23.667 13.834 36 18.501s24.5 7 36.5 7c17.333 0 32 -3.16699 44 -9.5s18 -14.833 18 -25.5c0 -9.33301 -5 -18.666 -15 -27.999l-283 -262h-84zM472 -21.002
c-63.333 0 -114.002 9.66406 -152.002 28.9971s-67.167 47.833 -87.5 85.5s-33.666 84 -39.999 139s-9.5 118.167 -9.5 189.5v317c0 16.667 -1.5 29.667 -4.5 39s-9.5 16 -19.5 20s-24.5 6.33301 -43.5 7s-44.167 1 -75.5 1v87h82c25.333 0 50.166 0.166992 74.499 0.5
s49 1 74 2s51.833 2.16699 80.5 3.5v-528c0 -42 1.83301 -81 5.5 -117s11.667 -66.667 24 -92s30 -44.666 53 -57.999s53.833 -20 92.5 -20c36 0 69.167 3.83301 99.5 11.5s57.833 18.667 82.5 33s46.334 31.5 65.001 51.5s34.334 40.667 47.001 62
c1.33301 24.667 2 49.167 2 73.5v74.5v344c0 18 -1.5 31.833 -4.5 41.5s-9.66699 16.834 -20 21.501s-25.166 7.33398 -44.499 8.00098s-45.333 1 -78 1v87c50.667 0 102.5 0.333008 155.5 1s106.167 2.66699 159.5 6v-760c0 -12 1.66699 -21.5 5 -28.5
s10.166 -12.167 20.499 -15.5s24.833 -5.33301 43.5 -6s43.334 -1 74.001 -1v-89c-60 0 -114.333 -0.333008 -163 -1s-95.667 -1.66699 -141 -3v134c-46 -50.667 -99.333 -88.5 -160 -113.5s-126.334 -37.5 -197.001 -37.5z" />
    <glyph glyph-name="ucircumflex" unicode="&#xfb;" horiz-adv-x="1170" 
d="M648 1350l239 -317h-86l-220 195l-216 -195h-83l230 317h136zM472 -21c-63.333 0 -114.002 9.66406 -152.002 28.9971s-67.167 47.833 -87.5 85.5s-33.666 84 -39.999 139s-9.5 118.167 -9.5 189.5v317c0 16.667 -1.5 29.667 -4.5 39s-9.5 16 -19.5 20
s-24.5 6.33301 -43.5 7s-44.167 1 -75.5 1v87h82c25.333 0 50.166 0.166992 74.499 0.5s49 1 74 2s51.833 2.16699 80.5 3.5v-528c0 -42 1.83301 -81 5.5 -117s11.667 -66.667 24 -92s30 -44.666 53 -57.999s53.833 -20 92.5 -20c36 0 69.167 3.83301 99.5 11.5
s57.833 18.667 82.5 33s46.334 31.5 65.001 51.5s34.334 40.667 47.001 62c1.33301 24.667 2 49.167 2 73.5v74.5v344c0 18 -1.5 31.833 -4.5 41.5s-9.66699 16.834 -20 21.501s-25.166 7.33398 -44.499 8.00098s-45.333 1 -78 1v87c50.667 0 102.5 0.333008 155.5 1
s106.167 2.66699 159.5 6v-760c0 -12 1.66699 -21.5 5 -28.5s10.166 -12.167 20.499 -15.5s24.833 -5.33301 43.5 -6s43.334 -1 74.001 -1v-89c-60 0 -114.333 -0.333008 -163 -1s-95.667 -1.66699 -141 -3v134c-46 -50.667 -99.333 -88.5 -160 -113.5
s-126.334 -37.5 -197.001 -37.5z" />
    <glyph glyph-name="udieresis" unicode="&#xfc;" horiz-adv-x="1170" 
d="M771 1274c28 0 50.334 -8.00098 67.001 -24.001s25 -37.667 25 -65c0 -26.667 -8.33301 -48.167 -25 -64.5s-39.334 -24.5 -68.001 -24.5c-28 0 -50.167 8.33301 -66.5 25s-24.5 38.334 -24.5 65.001s8.33301 48 25 64s39 24 67 24zM398.001 1274
c28 0 50.167 -7.83398 66.5 -23.501s24.5 -37.5 24.5 -65.5c0 -26.667 -8.16699 -48.167 -24.5 -64.5s-38.833 -24.5 -67.5 -24.5c-28 0 -50.167 8.33301 -66.5 25s-24.5 38.334 -24.5 65.001s8.33301 48 25 64s39 24 67 24zM472.001 -21.002
c-63.333 0 -114.002 9.66406 -152.002 28.9971s-67.167 47.833 -87.5 85.5s-33.666 84 -39.999 139s-9.5 118.167 -9.5 189.5v317c0 16.667 -1.5 29.667 -4.5 39s-9.5 16 -19.5 20s-24.5 6.33301 -43.5 7s-44.167 1 -75.5 1v87h82c25.333 0 50.166 0.166992 74.499 0.5
s49 1 74 2s51.833 2.16699 80.5 3.5v-528c0 -42 1.83301 -81 5.5 -117s11.667 -66.667 24 -92s30 -44.666 53 -57.999s53.833 -20 92.5 -20c36 0 69.167 3.83301 99.5 11.5s57.833 18.667 82.5 33s46.334 31.5 65.001 51.5s34.334 40.667 47.001 62
c1.33301 24.667 2 49.167 2 73.5v74.5v344c0 18 -1.5 31.833 -4.5 41.5s-9.66699 16.834 -20 21.501s-25.166 7.33398 -44.499 8.00098s-45.333 1 -78 1v87c50.667 0 102.5 0.333008 155.5 1s106.167 2.66699 159.5 6v-760c0 -12 1.66699 -21.5 5 -28.5
s10.166 -12.167 20.499 -15.5s24.833 -5.33301 43.5 -6s43.334 -1 74.001 -1v-89c-60 0 -114.333 -0.333008 -163 -1s-95.667 -1.66699 -141 -3v134c-46 -50.667 -99.333 -88.5 -160 -113.5s-126.334 -37.5 -197.001 -37.5z" />
    <glyph glyph-name="yacute" unicode="&#xfd;" horiz-adv-x="1060" 
d="M161 -272l50.0029 -7.99805c13.333 -2 27 -3.66699 41 -5s25.667 -2 35 -2c14 0 27.167 3 39.5 9s24.666 15.833 36.999 29.5s25 31.667 38 54s26.833 49.833 41.5 82.5l38 100l-165 355l-62.5 133l-55.5 122.5l-42 93c-11.333 24.333 -18.333 39.166 -21 44.499
c-7.33301 16 -14 28.5 -20 37.5s-12.833 16 -20.5 21s-17.334 8.16699 -29.001 9.5s-27.167 2 -46.5 2h-36v89c38 0 75.5 -0.333008 112.5 -1s71.833 -1 104.5 -1c31.333 0 66.833 0.333008 106.5 1s84.5 1 134.5 1v-89h-88c-18 0 -32.167 -3.16699 -42.5 -9.5
s-15.833 -17.5 -16.5 -33.5c0.666992 -13.333 3.66699 -28.333 9 -45s11.833 -33.834 19.5 -51.501l24 -53l23.5 -50.5l191 -408l80 199l35 86.5l36 89l34.5 86.5l30.5 76c6 14.667 10.667 27.334 14 38.001s5.33301 20.667 6 30c-0.666992 10 -2.83398 18 -6.50098 24
s-10.5 10.667 -20.5 14s-24.333 5.5 -43 6.5s-43 1.5 -73 1.5v89c34.667 0 68.167 -0.333008 100.5 -1s64.5 -1 96.5 -1c35.333 0 71.666 0.333008 108.999 1s75.333 1 114 1v-89c-28.667 0 -51.167 -1 -67.5 -3s-29.5 -6.5 -39.5 -13.5s-18.333 -17 -25 -30
s-15 -30.5 -25 -52.5l-345 -814c-24 -56.667 -46.667 -104 -68 -142s-43 -68.5 -65 -91.5s-45.167 -39.333 -69.5 -49s-51.833 -14.5 -82.5 -14.5c-14.667 0 -29.667 1.33301 -45 4s-29.666 5.66699 -42.999 9c-15.333 3.33301 -30.333 7.66602 -45 12.999zM523.003 1271
c8 10.667 17.167 20.998 27.5 30.998s21.333 18.833 33 26.5s23.667 13.834 36 18.501s24.5 7 36.5 7c17.333 0 32 -3.16699 44 -9.5s18 -14.833 18 -25.5c0 -9.33301 -5 -18.666 -15 -27.999l-283 -262h-84z" />
    <glyph glyph-name="thorn" unicode="&#xfe;" horiz-adv-x="1188" 
d="M337 746c34 52.667 79.665 94.0039 136.998 124.004s122.333 45 195 45c64.667 0 123.667 -11.167 177 -33.5s99.166 -53.833 137.499 -94.5s68 -89.334 89 -146.001s31.5 -119.334 31.5 -188.001c0 -72.667 -10.5 -138.5 -31.5 -197.5s-50.5 -109.5 -88.5 -151.5
s-83.833 -74.333 -137.5 -97s-113.167 -34 -178.5 -34c-146.667 0 -257 55.333 -331 166l-2 -368c0 -16 0.666992 -29.5 2 -40.5s5.5 -19.833 12.5 -26.5s18.167 -11.334 33.5 -14.001s37 -4 65 -4h52v-90c-43.333 0.666992 -82.666 1.33398 -117.999 2.00098
c-15.333 0 -30.333 0.166992 -45 0.5s-28 0.666016 -40 0.999023s-22.333 0.666016 -31 0.999023s-14 0.5 -16 0.5s-6.66699 -0.166992 -14 -0.5s-16.666 -0.666016 -27.999 -0.999023s-24 -0.666016 -38 -0.999023s-28 -0.5 -42 -0.5
c-33.333 -0.666992 -70.666 -1.33398 -111.999 -2.00098v90c38 0 67.167 1.33301 87.5 4s35.333 7 45 13s15.167 14 16.5 24s2 22.333 2 37v1365c0 11.333 -0.666992 21.5 -2 30.5s-6.5 16.667 -15.5 23s-23.167 11.166 -42.5 14.499s-47 5 -83 5v90h95
c36 0 72 0.333008 108 1s72 1.66699 108 3zM623.998 806.004c-46 0 -87.333 -8.3291 -124 -24.9961s-68 -40.334 -94 -71.001s-46 -68.167 -60 -112.5s-21 -93.833 -21 -148.5c0 -56 7.16699 -106.667 21.5 -152s34.833 -84 61.5 -116s58.834 -56.667 96.501 -74
s79.834 -26 126.501 -26c46 0 87.667 8.33301 125 25s69.166 40.667 95.499 72s46.666 69.666 60.999 114.999s21.5 96.666 21.5 153.999c0 55.333 -7.16699 105.166 -21.5 149.499s-35 82 -62 113s-59.5 54.833 -97.5 71.5s-81 25 -129 25z" />
    <glyph glyph-name="ydieresis" unicode="&#xff;" horiz-adv-x="1060" 
d="M161 -272l50.0029 -7.99805c13.333 -2 27 -3.66699 41 -5s25.667 -2 35 -2c14 0 27.167 3 39.5 9s24.666 15.833 36.999 29.5s25 31.667 38 54s26.833 49.833 41.5 82.5l38 100l-165 355l-62.5 133l-55.5 122.5l-42 93c-11.333 24.333 -18.333 39.166 -21 44.499
c-7.33301 16 -14 28.5 -20 37.5s-12.833 16 -20.5 21s-17.334 8.16699 -29.001 9.5s-27.167 2 -46.5 2h-36v89c38 0 75.5 -0.333008 112.5 -1s71.833 -1 104.5 -1c31.333 0 66.833 0.333008 106.5 1s84.5 1 134.5 1v-89h-88c-18 0 -32.167 -3.16699 -42.5 -9.5
s-15.833 -17.5 -16.5 -33.5c0.666992 -13.333 3.66699 -28.333 9 -45s11.833 -33.834 19.5 -51.501l24 -53l23.5 -50.5l191 -408l80 199l35 86.5l36 89l34.5 86.5l30.5 76c6 14.667 10.667 27.334 14 38.001s5.33301 20.667 6 30c-0.666992 10 -2.83398 18 -6.50098 24
s-10.5 10.667 -20.5 14s-24.333 5.5 -43 6.5s-43 1.5 -73 1.5v89c34.667 0 68.167 -0.333008 100.5 -1s64.5 -1 96.5 -1c35.333 0 71.666 0.333008 108.999 1s75.333 1 114 1v-89c-28.667 0 -51.167 -1 -67.5 -3s-29.5 -6.5 -39.5 -13.5s-18.333 -17 -25 -30
s-15 -30.5 -25 -52.5l-345 -814c-24 -56.667 -46.667 -104 -68 -142s-43 -68.5 -65 -91.5s-45.167 -39.333 -69.5 -49s-51.833 -14.5 -82.5 -14.5c-14.667 0 -29.667 1.33301 -45 4s-29.666 5.66699 -42.999 9c-15.333 3.33301 -30.333 7.66602 -45 12.999zM716.003 1274
c28 0 50.334 -8.00098 67.001 -24.001s25 -37.667 25 -65c0 -26.667 -8.33301 -48.167 -25 -64.5s-39.334 -24.5 -68.001 -24.5c-28 0 -50.167 8.33301 -66.5 25s-24.5 38.334 -24.5 65.001s8.33301 48 25 64s39 24 67 24zM343.004 1274c28 0 50.167 -7.83398 66.5 -23.501
s24.5 -37.5 24.5 -65.5c0 -26.667 -8.16699 -48.167 -24.5 -64.5s-38.833 -24.5 -67.5 -24.5c-28 0 -50.167 8.33301 -66.5 25s-24.5 38.334 -24.5 65.001s8.33301 48 25 64s39 24 67 24z" />
    <glyph glyph-name="dotlessi" unicode="&#x131;" horiz-adv-x="559" 
d="M373 152c0 -14.667 2.66309 -26.165 7.99609 -34.498s14 -14.5 26 -18.5s27.5 -6.33301 46.5 -7s42.167 -1 69.5 -1v-91c-17.333 0 -40.666 0.166992 -69.999 0.5s-58.666 0.5 -87.999 0.5s-55.333 0.166992 -78 0.5s-36 0.5 -40 0.5c-38 0 -71.5 -0.333008 -100.5 -1
s-58.833 -1 -89.5 -1v91c36 0 64 1 84 3s34.833 5.33301 44.5 10s15.334 11.167 17.001 19.5s2.5 19.166 2.5 32.499v613c0 9.33301 -2.5 16.333 -7.5 21s-13.167 8.16699 -24.5 10.5s-26.166 3.66602 -44.499 3.99902s-40.5 0.833008 -66.5 1.5v89
c56.667 0 110 0.333008 160 1s100.333 2 151 4v-748z" />
    <glyph glyph-name="Lslash" unicode="&#x141;" horiz-adv-x="1088" 
d="M769 895v-89l-743 -316v89zM56 1290c44.667 -2 94.002 -2.99805 148.002 -2.99805h191.5c63 0 129.833 1 200.5 3v-99h-71c-27.333 0 -48.333 -2.33301 -63 -7s-25.5 -10.834 -32.5 -18.501s-11.167 -16.667 -12.5 -27s-2 -21.166 -2 -32.499v-992h455
c16 0 28.333 7.33301 37 22s15 36 19 64s6.33301 62.167 7 102.5s1 86.166 1 137.499h115v-440h-993v99h51c31.333 0 55.5 2.33301 72.5 7s29.333 11.334 37 20.001s12.167 18.5 13.5 29.5s2 23.167 2 36.5v903c0 5.33301 0.166992 10.666 0.5 15.999s0.5 10.666 0.5 15.999
c0 10 -1.16699 19 -3.5 27s-7.83301 14.667 -16.5 20s-21.334 9.5 -38.001 12.5s-39.334 4.5 -68.001 4.5h-51v99z" />
    </font>
</defs>
</svg>
